img image001 image001 image001 image001 image001 image001 image001 image001 image001 image001 image001 image001 image001 image001 image001

Planets Sun Sun Sun
Статистика раздачи
Автор: Nickolas3434 | Размер: 557.66 МБ | Добавлен: 10 июн 2015
Раздают: 18    Качают: 2
Скачать торрент
Скачать торрент
Описание торрента

СообщениеДобавлено: 10 июн 2015 


Информация о фильме
Название: Олевский.Сергей Адамович Ковалев
Год выхода: 2015
Жанр: Интервью
В ролях: Тимур Олевский,Сергей Адамович Ковалев
О фильме:
В гостях у Тимура Олевского председатель «Мемориала» Сергей Ковалев. Говорили о украинском национализме,о том, как клеймо «иностранного агента» повлияет на работу НКО в России и почему Запад перестанет финансировать такие организации; почему стыд был главной действующей силой диссидентства в СССР, почему Россия «быстро движется к деспотии», может ли Кадыров стать президентом, почему глава Чечни – «зубная боль Путина» и как Путин ошибся с «гениальным решением» чеченской проблемы.
Страна: Россия
Студия: Телеканал "Дождь"
Продолжительность: 00:40:02
Семпл
Файл
Кодек: DivX
Качество: TVRip
Видео: DivX 720х400 16:9 1 809 Kbps 25.000 fps
Звук: Мр3 128 Kbps 48.0 KHz 2 channels
Format : AVI
Format/Info : Audio Video Interleave
File size : 558 MiB
Duration : 40mn 2s
Overall bit rate : 1 947 Kbps
Video
ID : 0
Format : MPEG-4 Visual
Codec ID : DIV3
Codec ID/Hint : DivX 3 Low
Duration : 40mn 2s
Bit rate : 1 809 Kbps
Width : 720 pixels
Height : 400 pixels
Display aspect ratio : 16:9
Frame rate : 25.000 fps
Color space : YUV
Chroma subsampling : 4:2:0
Bit depth : 8 bits
Compression mode : Lossy
Bits/(Pixel*Frame) : 0.251
Stream size : 518 MiB (93%)
Audio
ID : 1
Format : MPEG Audio
Format version : Version 1
Format profile : Layer 3
Mode : Joint stereo
Mode extension : MS Stereo
Codec ID : 55
Codec ID/Hint : MP3
Duration : 40mn 2s
Source duration : 40mn 2s
Bit rate mode : Constant
Bit rate : 128 Kbps
Channel(s) : 2 channels
Sampling rate : 48.0 KHz
Compression mode : Lossy
Stream size : 36.7 MiB (7%)
Alignment : Aligned on interleaves
Interleave, duration : 40 ms (1.00 video frame)




   Похожие торренты   Торрент   Размер 
В этой теме нет новых непрочитанных сообщений. Бокс. Сергей Ковалёв - Жан Паскаль + Андеркарт [13.03] (2015) HDTV 720p | 60 fps

71 | 61

10.18 ГБ

В этой теме нет новых непрочитанных сообщений. Бокс. Сергей Ковалёв - Наджиб Мохаммеди + Андеркарт [25.07] (2015) HDTV 480p | 60 fps

152 | 80

1.75 ГБ

В этой теме нет новых непрочитанных сообщений. Бокс. Сергей Ковалёв - Наджиб Мохаммеди + Андеркарт [25.07] (2015) HDTV 720p | 60 fps

86 | 49

4.67 ГБ

В этой теме нет новых непрочитанных сообщений. Бокс. Сергей Ковалёв - Седрик Эгнью [29.03] (2014) SATRip

104 | 6

662.02 МБ

В этой теме нет новых непрочитанных сообщений. Бокс. Натан Кливерли – Сергей Ковалев [17.08] (2013) HDTVRip 720р

12 | 3

2.13 ГБ

В этой теме нет новых непрочитанных сообщений. Бокс. Сергей Ковалёв - Седрик Эгнью [29.03] (2014) HDTVRip 720р

72 | 10

2.19 ГБ

В этой теме нет новых непрочитанных сообщений. Бокс. Сергей Ковалёв - Блейк Капарелло + 2 боя [02.08] (2014) HDTVRip 720р | 60 fps

57 | 7

7.02 ГБ




Вы не можете начинать темы
Вы не можете отвечать на сообщения
Вы не можете редактировать свои сообщения
Вы не можете удалять свои сообщения
Вы не можете добавлять вложения

Перейти:  
Для Мосгорсуда, Роскомнадзора и рекламодателей: mosgorsud-torrent[собачка]yandex.ru
 Вход
ppkBB3cker v.2 © 2008-2014 @ PPK
[ Time : 0.048s | 14 Queries | GZIP : Off ]

Торрент трекер RUTOR.IN, Не можете зайти на rutor.org? Какой новый адрес рутор? Какое зеркало рутор? Не работает rutor.org и зеркала? Тогда наш торрент специально для вас. Rutor.in неофициальное зеркало rutor. В случае если у Вас заблокирован rutor или вдруг Вы не можете на него зайти, то Вы без труда сможете скачать бесплатно и без рекламы последние новинки кино, игр, сериалов и прочего у нас, на Rutor.in. Не нужно использовать прокси, чтобы зайти на рутор, достаточно воспользоваться нашим ресурсом. Все новые фильмы, игры, сериалы, книги и музыка за 2013 и 2014 годы через торрент бесплатно. Скачивайте фильмы в хорошем качестве, игры для пк, xbox, playstation без регистрации. У нас вы найдете новые Зарубежные сериалы и Русские сериалы 2013, 2014, 2015 годов. Оставайтесь с нами, качайте любимые фильмы, игры, сериалы, книги и музыку.