img image001 image001 image001 image001 image001 image001 image001 image001 image001 image001 image001 image001 image001 image001 image001

Planets Sun Sun Sun
Статистика раздачи
Автор: Nickolas3434 | Размер: 939.81 МБ | Добавлен: 10 июн 2015
Раздают: 52    Качают: 17
Скачать торрент
Скачать торрент
Описание торрента

СообщениеДобавлено: 10 июн 2015 


Информация о фильме
Название: Трёхгрошовая опера / Трохграшовая опера
Год выхода: 1997
Жанр: Драма, мюзикл
Режиссер: Витаутас Григалюнас
В ролях:
Макхит (по кличке Мэкки-Нож) — Игорь Забара
Джонатан Джереми Пичем (владелец фирмы «Друг нищего») — Виктор Васильев
Селия Пичем (его жена) — Майя Мартыненко
Полли Пичем (его дочь) — Анна Легчилова
Браун (шеф лондонской полиции) — Артур Федорович
Люси (его дочь) — Светлана Никифорова
Смит — Евгений Журавкин
Филч — Артур Шуляк
Дженни-Малина — Ольга Лужковская
Маттиас — Анатолий Голуб
О фильме:
Спектакль по одноименной пьесе Бертольта Брехта.
Мэкки, князь лондонского преступного мира, встречает Полли Пичем, дочь короля нищих, и сразу же решает жениться. Свадьба проходит в заброшенном складе, отрезанном от мира при помощи подъемного моста и до отказа набитом подарками, украденными бандой Мэкки для молодожёнов. Браун, начальник полиции, друг и соучастник Мэкки, также приглашён на свадьбу. Однако сам Пичем крайне недоволен союзом своей дочери с Мэкки. Он приходит к Брауну и требует, чтобы Мэкки упрятали за решётку; в противном случае на грядущих празднествах по случаю коронации он выпустит на улицы орды попрошаек, калек и увечных — настоящих или ненастоящих, но поголовно преданных своему хозяину...
Доп. информация:
Композитор — Борис Серёгин
Аранжировка — Андрей Жуков, Константин Горячий
Художник — Марина Дударева
Костюмы — Алёна Игруша
Телеверсию подготовили:
Режиссёр — Надежда Горкунова
Оператор-постановщик — Геннадий Солодов
Операторы — Владимир Левицкий, Дмитрий Третьяков
Звукорежиссёр — Татьяна Рубцова
Исходник для данной раздачи, записан с цифрового наземного канала, т.е. DVB-Т, любезно предоставлен PavelDAS
За что ему большое спасибо!
Помощь с описанием: Bartimeyse
Запись потока *.ts с наземного цифрового телеканала "Беларусь 3", ремукс в *.mkv программой VideoReDo.

Страна: Республика Беларусь
Студия: Белтелерадиокомпания
Продолжительность: 00:54:27
Перевод: Не требуется
Интертитры: Белорусский
Язык: Русский
Файл
Кодек: AVC (H264)
Качество: DVB
Видео: AVC (H264), 720x576 (4:3), 25 fps, 2 109 Kbps
Звук: MP2, 256 kbps, 2 channels, 48 kHz
Семпл: http://rusfolder.com/43783525
Код:
General
Unique ID                      : 1595353925454420929659368479666903480 (0x133410577F043E12D8BB785450699B8)
Complete name                  : D:Новая  земля 2ТелеспектаклиТрёхгрошовая опера (1997)Трёхгрошовая опера (1997).mkv
Format                         : Matroska
Format version                 : Version 2
File size                      : 940 MiB
Duration                       : 54mn 27s
Overall bit rate               : 2 413 Kbps
Writing application            : Lavf52.64.2
Writing library                : Lavf52.64.2
Video
ID                             : 1
Format                         : AVC
Format/Info                    : Advanced Video Codec
Format profile                 : Main@L3.0
Format settings, CABAC         : Yes
Format settings, ReFrames      : 4 frames
Format settings, GOP           : M=4, N=24
Codec ID                       : V_MPEG4/ISO/AVC
Duration                       : 54mn 27s
Bit rate                       : 2 109 Kbps
Width                          : 720 pixels
Height                         : 576 pixels
Display aspect ratio           : 4:3
Original display aspect ratio  : 4:3
Frame rate mode                : Constant
Frame rate                     : 25.000 fps
Standard                       : PAL
Color space                    : YUV
Chroma subsampling             : 4:2:0
Bit depth                      : 8 bits
Scan type                      : MBAFF
Scan order                     : Top Field First
Bits/(Pixel*Frame)             : 0.203
Stream size                    : 821 MiB (87%)
Default                        : Yes
Forced                         : No
Color primaries                : BT.601 PAL
Transfer characteristics       : BT.470 System B, BT.470 System G
Matrix coefficients            : BT.601
Color range                    : Limited
Audio
ID                             : 2
Format                         : MPEG Audio
Format version                 : Version 1
Format profile                 : Layer 2
Codec ID                       : A_MPEG/L2
Codec ID/Hint                  : MP2
Duration                       : 54mn 27s
Bit rate mode                  : Constant
Bit rate                       : 256 Kbps
Channel(s)                     : 2 channels
Sampling rate                  : 48.0 KHz
Compression mode               : Lossy
Stream size                    : 99.7 MiB (11%)
Language                       : English
Default                        : Yes
Forced                         : No





   Похожие торренты   Торрент   Размер 
В этой теме нет новых непрочитанных сообщений. Опера - Визит дамы (1997) DVB от AND03AND

2 | 0

1.55 ГБ

В этой теме нет новых непрочитанных сообщений. Опера - Альпийская баллада (1987) DVB от AND03AND

7 | 7

853.71 МБ

В этой теме нет новых непрочитанных сообщений. Опера - В пущах полесья / У пушчах Палесся [BLR] (1982) DVB от AND03AND

3 | 2

1.95 ГБ

В этой теме нет новых непрочитанных сообщений. Опера - Франциск Скорина / Францыск Скарына [BLR] (1990) DVB от AND03AND

2 | 1

1.22 ГБ

В этой теме нет новых непрочитанных сообщений. Опера - В. Моцарт. Волшебная флейта / W. Mozart Die Zauberflote (198X) DVB от AND03AND

111 | 2

2.36 ГБ

В этой теме нет новых непрочитанных сообщений. Балет и Опера - Кто я? / Медведь / Юбилейный вечер к 80-летию Сергея Кортеса (2015) DVB от AND03AND

2 | 7

1.49 ГБ

В этой теме нет новых непрочитанных сообщений. Опера - Дикая охота короля Стаха / Дзікае паляванне караля Стаха [BLR] (1989) DVB от AND03AND

3 | 23

1.83 ГБ




Вы не можете начинать темы
Вы не можете отвечать на сообщения
Вы не можете редактировать свои сообщения
Вы не можете удалять свои сообщения
Вы не можете добавлять вложения

Перейти:  
Для Мосгорсуда, Роскомнадзора и рекламодателей: mosgorsud-torrent[собачка]yandex.ru
 Вход
ppkBB3cker v.2 © 2008-2014 @ PPK
[ Time : 0.050s | 16 Queries | GZIP : Off ]

Торрент трекер RUTOR.IN, Не можете зайти на rutor.org? Какой новый адрес рутор? Какое зеркало рутор? Не работает rutor.org и зеркала? Тогда наш торрент специально для вас. Rutor.in неофициальное зеркало rutor. В случае если у Вас заблокирован rutor или вдруг Вы не можете на него зайти, то Вы без труда сможете скачать бесплатно и без рекламы последние новинки кино, игр, сериалов и прочего у нас, на Rutor.in. Не нужно использовать прокси, чтобы зайти на рутор, достаточно воспользоваться нашим ресурсом. Все новые фильмы, игры, сериалы, книги и музыка за 2013 и 2014 годы через торрент бесплатно. Скачивайте фильмы в хорошем качестве, игры для пк, xbox, playstation без регистрации. У нас вы найдете новые Зарубежные сериалы и Русские сериалы 2013, 2014, 2015 годов. Оставайтесь с нами, качайте любимые фильмы, игры, сериалы, книги и музыку.