img image001 image001 image001 image001 image001 image001 image001 image001 image001 image001 image001 image001 image001 image001 image001

Planets Sun Sun Sun
Статистика раздачи
Автор: Nickolas3434 | Размер: 1.38 ГБ | Добавлен: 03 июл 2015
Раздают: 177    Качают: 13
Скачать торрент
Скачать торрент
Описание торрента

СообщениеДобавлено: 03 июл 2015 


Страна: Россия
Жанр: Pop
Продолжительность: 01:00:27
Год выпуска: 2015 г.
Треклист:
1.Синяя вечность
2.Мелодия
3.Запах дома
4.Русское поле
5.Королева красоты
6.Лучший город Земли
7.Мгновения
Источник: собственный рип, поток НТВ+ без перекодировки.
Доп.информация: Пропущено около минуты записи в начале
Описание:
"К нам приехал" - музыкальная телепрограмма, дарящая зрителям радость встречи с полюбившимися исполнителями авторской песни, а также знакомящая их с новыми музыкальными дарованиями и талантами, которые в прямом эфире отвечают на вопросы и исполняют свои лучшие и совершенно новые песни.
Сегодня гость программы - Серге́й Вале́рьевич Волчко́в белорусский и российский эстрадный певец (баритон). Победитель второго сезона музыкального телеконкурса «Голос» на Первом канале.
Исполняет песни из репертуара и в манере Муслима Магомаева.
Просьба оставлять комментарии по этому поводу,т.к я не любитель подражателей.
Качество: DVB
Контейнер: MPG
Видео кодек: MPEG2
Аудио кодек: MP2
Видео: MPEG2 720x576 4:3 2 902 Kbps 25.000 fps
Аудио: MP2 192 Kbps 48.0 KHz 2 channels
Format : MPEG-TS
File size : 1.38 GiB
Duration : 1h 0mn
Start time : UTC 2015-07-02 09:57:28
End time : UTC 2015-07-02 10:57:28
Overall bit rate mode : Variable
Overall bit rate : 3 257 Kbps
Video
ID : 325 (0x145)
Menu ID : 10206 (0x27DE)
Format : MPEG Video
Format version : Version 2
Format profile : Main@Main
Format settings, BVOP : Yes
Format settings, Matrix : Custom
Format settings, GOP : Variable
Codec ID : 2
Duration : 1h 0mn
Bit rate mode : Variable
Bit rate : 2 902 Kbps
Maximum bit rate : 15.0 Mbps
Width : 720 pixels
Height : 576 pixels
Display aspect ratio : 4:3
Frame rate : 25.000 fps
Standard : PAL
Color space : YUV
Chroma subsampling : 4:2:0
Bit depth : 8 bits
Scan type : Interlaced
Scan order : Top Field First
Compression mode : Lossy
Bits/(Pixel*Frame) : 0.280
Stream size : 1.22 GiB (89%)
Audio
ID : 410 (0x19A)
Menu ID : 10206 (0x27DE)
Format : MPEG Audio
Format version : Version 1
Format profile : Layer 2
Codec ID : 4
Duration : 1h 0mn
Bit rate mode : Constant
Bit rate : 192 Kbps
Channel(s) : 2 channels
Sampling rate : 48.0 KHz
Compression mode : Lossy
Delay relative to video : -329ms
Stream size : 83.0 MiB (6%)
Language : Russian
Language, more info : Clean effects
Menu





   Похожие торренты   Торрент   Размер 
В этой теме нет новых непрочитанных сообщений. К нам приехал... - Сергей Беликов [17.12] (2015) DVB

18 | 1

754.47 МБ

В этой теме нет новых непрочитанных сообщений. К нам приехал... - Зара [10.09] (2015) WEBRip-AVC

10 | 19

391.03 МБ

В этой теме нет новых непрочитанных сообщений. К нам приехал... - Группа «После 11» [01.10] (2015) IPTVRip-AVC

7 | 5

698.2 МБ

В этой теме нет новых непрочитанных сообщений. Небослов - Дядя Ринат приехал (2015) MP3

33 | 7

122.32 МБ

В этой теме нет новых непрочитанных сообщений. К нам приехал... - Злата Дзарданова и Евгений Суслин [19.11] (2015) DVB

11 | 3

1.55 ГБ

В этой теме нет новых непрочитанных сообщений. К нам приехал... - Павел Слободкин и группа «Веселые ребята» [15.10] (2015) DVB

46 | 8

1.68 ГБ

В этой теме нет новых непрочитанных сообщений. К нам приехал... - Варвара [30.03] (2017) DVB

0 | 0

2.44 ГБ




Вы не можете начинать темы
Вы не можете отвечать на сообщения
Вы не можете редактировать свои сообщения
Вы не можете удалять свои сообщения
Вы не можете добавлять вложения

Перейти:  
Для Мосгорсуда, Роскомнадзора и рекламодателей: mosgorsud-torrent[собачка]yandex.ru
 Вход
ppkBB3cker v.2 © 2008-2014 @ PPK
[ Time : 0.037s | 15 Queries | GZIP : Off ]

Торрент трекер RUTOR.IN, Не можете зайти на rutor.org? Какой новый адрес рутор? Какое зеркало рутор? Не работает rutor.org и зеркала? Тогда наш торрент специально для вас. Rutor.in неофициальное зеркало rutor. В случае если у Вас заблокирован rutor или вдруг Вы не можете на него зайти, то Вы без труда сможете скачать бесплатно и без рекламы последние новинки кино, игр, сериалов и прочего у нас, на Rutor.in. Не нужно использовать прокси, чтобы зайти на рутор, достаточно воспользоваться нашим ресурсом. Все новые фильмы, игры, сериалы, книги и музыка за 2013 и 2014 годы через торрент бесплатно. Скачивайте фильмы в хорошем качестве, игры для пк, xbox, playstation без регистрации. У нас вы найдете новые Зарубежные сериалы и Русские сериалы 2013, 2014, 2015 годов. Оставайтесь с нами, качайте любимые фильмы, игры, сериалы, книги и музыку.
cron