img image001 image001 image001 image001 image001 image001 image001 image001 image001 image001 image001 image001 image001 image001 image001

Planets Sun Sun Sun
Статистика раздачи
Автор: Nickolas3434 | Размер: 1.82 ГБ | Добавлен: 07 июл 2015
Раздают: 16    Качают: 7
Скачать торрент
Скачать торрент
Описание торрента

СообщениеДобавлено: 07 июл 2015 


Страна: Россия
Жанр: Pop
Продолжительность: 00:59:28
Год выпуска: 2014 г.
Треклист:
1.Дорога
2.Гарем
3.Самая
4.Чужая
5.День рождения
6.Романс
7.Фургончик
8.Карелия
9.За детей
Источник: собственный рип
Качество: DVB
Контейнер: MPG
Видео кодек: MPEG2
Аудио кодек: MP2
Видео: MPEG2 720x576 4:3 4 104 Kbps 25.000 fps
Аудио: MP2 192 Kbps 48.0 KHz 2 channels
General
Complete name : F:новUchkuduk.mpg
Format : MPEG-PS
File size : 1.82 GiB
Duration : 59mn 28s
Overall bit rate mode : Variable
Overall bit rate : 4 383 Kbps
Video
ID : 224 (0xE0)
Format : MPEG Video
Format version : Version 2
Format profile : Main@Main
Format settings, BVOP : Yes
Format settings, Matrix : Custom
Format settings, GOP : Variable
Duration : 59mn 28s
Bit rate mode : Variable
Bit rate : 4 104 Kbps
Maximum bit rate : 15.0 Mbps
Width : 720 pixels
Height : 576 pixels
Display aspect ratio : 4:3
Frame rate : 25.000 fps
Standard : PAL
Color space : YUV
Chroma subsampling : 4:2:0
Bit depth : 8 bits
Scan type : Interlaced
Scan order : Top Field First
Compression mode : Lossy
Bits/(Pixel*Frame) : 0.396
Stream size : 1.70 GiB (94%)
Audio
ID : 192 (0xC0)
Format : MPEG Audio
Format version : Version 1
Format profile : Layer 2
Duration : 59mn 28s
Bit rate mode : Constant
Bit rate : 192 Kbps
Channel(s) : 2 channels
Sampling rate : 48.0 KHz
Compression mode : Lossy
Delay relative to video : 55ms
Stream size : 81.7 MiB (4%)

Группа «Уч-Кудук» была создана в начале 21-го века, художественным руководителем которой является Ф. К. Закиров, бессменный руководитель группы «Ялла».
Музыкальный руководитель – Воробьев Сергей.
Солист группы «Уч-Кудук» - Ишанходжаев Зиёд, который в свою очередь в начале 70-х годов был тесно связан с творчеством группы «Ялла», с которой неоднократно гастролировал и выступал на концертных площадках нашей необъятной Родины (СССР). Тогда на начинающего артиста Зиёда очень сильно повлияло знакомство с творчеством такого мэтра Узбекской Эстрады как «певца мира» Батыра Закирова, в то время одному из самых популярных артистов советской эстрады.Творческий путь группы «Уч-Кудук» начался с благословения и напутствия Фаруха Закирова, который пожелал своим последователям (для которых песня «Уч-Кудук» явилась своего рода творческой путеводной звездой) достойно продолжать традиции восточной музыкальной культуры. За пять лет существования группа «Уч-Кудук» ведет успешную гастрольную деятельность не только в России, но и за ее пределами – в Испании, на Мальдивских островах, группа участвует в городских мероприятиях и ведет благотворительную деятельность.





   Похожие торренты   Торрент   Размер 
В этой теме нет новых непрочитанных сообщений. А.Иванов и гр.«Рондо» в программе «К нам приехал» (2011) WEBRip

18 | 1

1.34 ГБ

В этой теме нет новых непрочитанных сообщений. Уч-кудук - Уч-кудук (2009) FLAC

0 | 2

347.43 МБ

В этой теме нет новых непрочитанных сообщений. Уч-Кудук. Концерт (2011) DVB

33 | 10

2.05 ГБ

В этой теме нет новых непрочитанных сообщений. Видеоуроки по программе 1С-КАМИН: Зарплата 5.0 (2014) WEBRip 720p

407 | 3

3.57 ГБ

В этой теме нет новых непрочитанных сообщений. Видеоуроки по программе 1С: Зарплата и Управление Персоналом (2011-2014) WEBRip

144 | 13

1.2 ГБ

В этой теме нет новых непрочитанных сообщений. Александр Лукашенко: Интервью Президента Республики Беларусь программе Шустер LIVE (2014) DVBRip

384 | 96

684.84 МБ

В этой теме нет новых непрочитанных сообщений. К нам приехал... - Сергей Беликов [17.12] (2015) DVB

18 | 1

754.47 МБ




Вы не можете начинать темы
Вы не можете отвечать на сообщения
Вы не можете редактировать свои сообщения
Вы не можете удалять свои сообщения
Вы не можете добавлять вложения

Перейти:  
Для Мосгорсуда, Роскомнадзора и рекламодателей: mosgorsud-torrent[собачка]yandex.ru
 Вход
ppkBB3cker v.2 © 2008-2014 @ PPK
[ Time : 0.022s | 14 Queries | GZIP : Off ]

Торрент трекер RUTOR.IN, Не можете зайти на rutor.org? Какой новый адрес рутор? Какое зеркало рутор? Не работает rutor.org и зеркала? Тогда наш торрент специально для вас. Rutor.in неофициальное зеркало rutor. В случае если у Вас заблокирован rutor или вдруг Вы не можете на него зайти, то Вы без труда сможете скачать бесплатно и без рекламы последние новинки кино, игр, сериалов и прочего у нас, на Rutor.in. Не нужно использовать прокси, чтобы зайти на рутор, достаточно воспользоваться нашим ресурсом. Все новые фильмы, игры, сериалы, книги и музыка за 2013 и 2014 годы через торрент бесплатно. Скачивайте фильмы в хорошем качестве, игры для пк, xbox, playstation без регистрации. У нас вы найдете новые Зарубежные сериалы и Русские сериалы 2013, 2014, 2015 годов. Оставайтесь с нами, качайте любимые фильмы, игры, сериалы, книги и музыку.