img image001 image001 image001 image001 image001 image001 image001 image001 image001 image001 image001 image001 image001 image001 image001

Planets Sun Sun Sun
Статистика раздачи
Автор: Nickolas3434 | Размер: 617.37 МБ | Добавлен: 26 июл 2015
Раздают: 53    Качают: 5
Скачать торрент
Скачать торрент
Описание торрента

СообщениеДобавлено: 26 июл 2015 


Дата/Год выпуска:24.07.2015
Страна: Россия
Жанр: Интервью
Продолжительность: 00:31:41
Перевод: Не требуется
Описание:Политолог Станислав Белковский отвечает на вопросы Марины Королевой и радиослушателей "Эхо Москвы".
Доп. информация: Видео в некоторых местах с подрывами,звук нормальный.Данный релиз выкладываю в связи с просьбами пользователей трекера.Все выпуски с Белковским на Дожде выкладывать у меня нет возможности.
качество: IPTVRip
формат: MPG
Видео: MPEG-2 720x576 4:3 2 541kbps 25 000 fps
Аудио: MP2 128 kbps 48.0 kHz 2 ch
Desktop/Belkovsky_24.07.15.mpg
Format : MPEG-PS
File size : 617 MiB
Duration : 31mn 41s
Overall bit rate mode : Variable
Overall bit rate : 2 724 Kbps
Video
ID : 224 (0xE0)
Format : MPEG Video
Format version : Version 2
Format profile : High@Main
Format settings, BVOP : Yes
Format settings, Matrix : Default
Format settings, GOP : Variable
Duration : 31mn 41s
Bit rate mode : Variable
Bit rate : 2 541 Kbps
Maximum bit rate : 9 500 Kbps
Width : 720 pixels
Height : 576 pixels
Display aspect ratio : 4:3
Frame rate : 25.000 fps
Standard : PAL
Color space : YUV
Chroma subsampling : 4:2:0
Bit depth : 8 bits
Scan type : Interlaced
Scan order : Bottom Field First
Compression mode : Lossy
Bits/(Pixel*Frame) : 0.245
Time code of first frame : 00:00:00:00
Time code source : Group of pictures header
Stream size : 576 MiB (93%)
Color primaries : BT.601 NTSC
Transfer characteristics : BT.601
Matrix coefficients : BT.601
Audio
ID : 192 (0xC0)
Format : MPEG Audio
Format version : Version 1
Format profile : Layer 2
Duration : 31mn 41s
Bit rate mode : Constant
Bit rate : 128 Kbps
Channel(s) : 2 channels
Sampling rate : 48.0 KHz
Compression mode : Lossy
Stream size : 29.0 MiB (5%)



   Похожие торренты   Торрент   Размер 
В этой теме нет новых непрочитанных сообщений. Белковский. Особое мнение [19.08] (2015) WEBRip

21 | 1

100.61 МБ

В этой теме нет новых непрочитанных сообщений. Белковский. Особое мнение [11.08] (2015) WEBRip

26 | 0

128.94 МБ

В этой теме нет новых непрочитанных сообщений. Белковский. Особое мнение [05.07] (2015) WEBRip

16 | 0

86.88 МБ

В этой теме нет новых непрочитанных сообщений. Особое мнение. Станислав Белковский [эфир от 10.04] (2013) TVRip

0 | 2

316.51 МБ

В этой теме нет новых непрочитанных сообщений. Сванидзе. Особое мнение [31.07] (2015) IPTVRip

40 | 5

553.82 МБ

В этой теме нет новых непрочитанных сообщений. Особое мнение. Николай Сванидзе [05.08, 05.22] (2015) SATRip

16 | 0

1.33 ГБ

В этой теме нет новых непрочитанных сообщений. Леонид Радзиховский. Особое мнение [10.08] (2015) WEBRip

41 | 2

133.47 МБ




Вы не можете начинать темы
Вы не можете отвечать на сообщения
Вы не можете редактировать свои сообщения
Вы не можете удалять свои сообщения
Вы не можете добавлять вложения

Перейти:  
Для Мосгорсуда, Роскомнадзора и рекламодателей: mosgorsud-torrent[собачка]yandex.ru
 Вход
ppkBB3cker v.2 © 2008-2014 @ PPK
[ Time : 0.044s | 16 Queries | GZIP : Off ]

cron