img image001 image001 image001 image001 image001 image001 image001 image001 image001 image001 image001 image001 image001 image001 image001

Planets Sun Sun Sun
Статистика раздачи
Автор: Nickolas3434 | Размер: 1.68 ГБ | Добавлен: 08 авг 2015
Раздают: 315    Качают: 34
Скачать торрент
Скачать торрент
Описание торрента

СообщениеДобавлено: 08 авг 2015 

День, Когда Сбросили Бомбу / The Day They Dropped The Bomb


#77
Год выпуска: 2015
Страна: Великобритания
Студия: iTV | Finestripe Productions | Zodiak Media
Жанр: Документальный
Продолжительность: 0:54:49
Перевод: Профессиональный (многоголосый закадровый) | Первый Канал
Режиссер: Лесли Вудхед / Leslie Woodhead

Описание: 70 лет назад бомба, сброшенная с американского бомбардировщика "Энола Гей", уничтожила японский город Хиросиму. 200 тысяч жителей города были убиты и пропали без вести, еще 160 тысяч человек подверглись радиоактивному облучению. Это была не просто военная операция, а демонстрация силы США, стремившихся любой ценой заставить Японию капитулировать. Человечество вступило в новый, атомный век.

Автор рипа: lrn
Автор записи: GeneralFilm
Сэмпл: sendfile

Тип релиза: HDTVRip 720p
Контейнер: MKV
Видео: 1280x720 (16:9), 25,000 fps, H264, ~4000 kbps avg, ~0.174 bit/pixel
Аудио: 48 kHz, AC3 Dolby Digital, 3/2 (L,C,R,l,r) + LFE ch, ~384.00 kbps avg

General
Unique ID : 217895073019544247060553293154607128056 (0xA3ED1088B9F14DC8A04B1F03F0D35DF8)
Complete name : E:uTorrent.TempTempThe.Day.They.Dropped.The.Bomb.2015.HDTV.720p.x264-RUS-lrn.mkv
Format : Matroska
Format version : Version 4 / Version 2
File size : 1.68 GiB
Duration : 54mn 49s
Overall bit rate : 4 385 Kbps
Movie name : The.Day.They.Dropped.The.Bomb.2015.HDTV.720p.x264-RUS-lrn
Encoded date : UTC 2010-02-22 21:41:31
Writing application : mkvmerge v5.9.0 ('On The Loose') built on Dec 9 2012 15:37:01
Writing library : libebml v1.3.0 + libmatroska v1.4.0
DURATION : 00:54:49.320000000
NUMBER_OF_FRAMES : 82233
NUMBER_OF_BYTES : 1644376424
_STATISTICS_WRITING_APP : mkvmerge v7.7.0 ('Six Voices') 32bit built on Feb 28 2015 23:23:00
_STATISTICS_WRITING_DATE_UT : 2015-08-07 08:28:09
_STATISTICS_TAGS : BPS DURATION NUMBER_OF_FRAMES NUMBER_OF_BYTES
Video
ID : 1
Format : AVC
Format/Info : Advanced Video Codec
Format profile : High@L4.1
Format settings, CABAC : Yes
Format settings, ReFrames : 8 frames
Codec ID : V_MPEG4/ISO/AVC
Duration : 54mn 49s
Bit rate : 4 000 Kbps
Width : 1 280 pixels
Height : 720 pixels
Display aspect ratio : 16:9
Frame rate mode : Constant
Frame rate : 25.000 fps
Color space : YUV
Chroma subsampling : 4:2:0
Bit depth : 8 bits
Scan type : Progressive
Bits/(Pixel*Frame) : 0.174
Stream size : 1.50 GiB (89%)
Writing library : x264 core 146 r2538 121396c
Encoding settings : cabac=1 / ref=8 / deblock=1:-3:-3 / analyse=0x3:0x133 / me=umh / subme=9 / psy=1 / psy_rd=1.00:0.00 / mixed_ref=1 / me_range=32 / chroma_me=1 / trellis=2 / 8x8dct=1 / cqm=0 / deadzone=21,11 / fast_pskip=1 / chroma_qp_offset=-2 / threads=12 / lookahead_threads=2 / sliced_threads=0 / nr=0 / decimate=1 / interlaced=0 / bluray_compat=0 / constrained_intra=0 / bframes=8 / b_pyramid=2 / b_adapt=2 / b_bias=0 / direct=3 / weightb=1 / open_gop=0 / weightp=2 / keyint=250 / keyint_min=25 / scenecut=40 / intra_refresh=0 / rc_lookahead=50 / rc=2pass / mbtree=1 / bitrate=4000 / ratetol=1.0 / qcomp=0.60 / qpmin=0 / qpmax=69 / qpstep=4 / cplxblur=20.0 / qblur=0.5 / vbv_maxrate=62500 / vbv_bufsize=78125 / nal_hrd=none / filler=0 / ip_ratio=1.40 / aq=1:1.00
Default : Yes
Forced : No
Audio
ID : 2
Format : AC-3
Format/Info : Audio Coding 3
Mode extension : CM (complete main)
Format settings, Endianness : Big
Codec ID : A_AC3
Duration : 54mn 49s
Bit rate mode : Constant
Bit rate : 384 Kbps
Channel(s) : 6 channels
Channel positions : Front: L C R, Side: L R, LFE
Sampling rate : 48.0 KHz
Compression mode : Lossy
Stream size : 151 MiB (9%)
Language : Russian
Default : Yes
Forced : No
raw [info]: 1280x720p 1:1 @ 25/1 fps (cfr)
x264 [info]: using SAR=1/1
x264 [info]: using cpu capabilities: MMX2 SSE2Fast SSSE3 SSE4.2 AVX
x264 [info]: profile High, level 4.1
x264 [info]: frame I:521 Avg QP:14.73 size:114174
x264 [info]: frame P:21403 Avg QP:17.66 size: 37331
x264 [info]: frame B:60309 Avg QP:20.25 size: 13031
x264 [info]: consecutive B-frames: 2.6% 5.6% 4.7% 63.2% 7.6% 8.7% 2.4% 3.9% 1.4%
x264 [info]: mb I I16..4: 6.2% 81.0% 12.7%
x264 [info]: mb P I16..4: 1.6% 12.0% 0.7% P16..4: 44.5% 19.8% 12.0% 0.4% 0.1% skip: 8.9%
x264 [info]: mb B I16..4: 0.1% 1.6% 0.1% B16..8: 35.2% 9.4% 1.9% direct: 8.6% skip:43.2% L0:42.4% L1:46.2% BI:11.4%
x264 [info]: 8x8 transform intra:85.0% inter:69.9%
x264 [info]: direct mvs spatial:96.9% temporal:3.1%
x264 [info]: coded y,uvDC,uvAC intra: 83.4% 50.0% 22.8% inter: 31.7% 20.6% 1.4%
x264 [info]: i16 v,h,dc,p: 39% 15% 7% 39%
x264 [info]: i8 v,h,dc,ddl,ddr,vr,hd,vl,hu: 10% 9% 6% 9% 14% 14% 13% 12% 13%
x264 [info]: i4 v,h,dc,ddl,ddr,vr,hd,vl,hu: 11% 8% 4% 9% 15% 15% 14% 12% 13%
x264 [info]: i8c dc,h,v,p: 57% 19% 15% 9%
x264 [info]: Weighted P-Frames: Y:14.4% UV:3.1%
x264 [info]: ref P L0: 51.2% 12.7% 13.6% 6.4% 4.8% 4.3% 3.5% 2.8% 0.7% 0.0%
x264 [info]: ref B L0: 78.7% 9.3% 4.9% 2.6% 2.2% 1.4% 0.8%
x264 [info]: ref B L1: 95.7% 4.3%
x264 [info]: kb/s:3999.31
encoded 82233 frames, 13.88 fps, 3999.31 kb/s



   Похожие торренты   Торрент   Размер 
В этой теме нет новых непрочитанных сообщений. День, когда сбросили бомбу (2015) HDTVRip от GeneralFilm

1095 | 121

780.31 МБ

В этой теме нет новых непрочитанных сообщений. День, когда сбросили бомбу (2015) HDTV 1080i от GeneralFilm

689 | 69

3.93 ГБ

В этой теме нет новых непрочитанных сообщений. Исчезновение / Disparue [S01] (2015) HDTVRip 720p от ExKinoRay | Первый канал

19 | 5

7.63 ГБ

В этой теме нет новых непрочитанных сообщений. Евровидение 2015: Полный Комплект / Eurovision 2015: Full Event (2015) HDTVRip 720p | Первый Канал

102 | 87

13.42 ГБ

В этой теме нет новых непрочитанных сообщений. 57-я церемония вручения наград Грэмми / The 57th Grammy Awards 2015 (2015) HDTVRip 720p | Первый Канал

109 | 18

3.36 ГБ

В этой теме нет новых непрочитанных сообщений. 87-я Церемония Вручения Премии «Оскар» 2015 / The 87th Annual Academy Awards [22.02] (2015) HDTVRip 720p | Первый Канал

793 | 19

2.76 ГБ

В этой теме нет новых непрочитанных сообщений. Ален Делон, Уникальный Портрет / Alain Delon, cet inconnu (2015) HDTVRip 720p | Первый Канал

103 | 29

1.6 ГБ




Вы не можете начинать темы
Вы не можете отвечать на сообщения
Вы не можете редактировать свои сообщения
Вы не можете удалять свои сообщения
Вы не можете добавлять вложения

Перейти:  
Для Мосгорсуда, Роскомнадзора и рекламодателей: mosgorsud-torrent[собачка]yandex.ru
 Вход
ppkBB3cker v.2 © 2008-2014 @ PPK
[ Time : 0.031s | 15 Queries | GZIP : Off ]

Торрент трекер RUTOR.IN, Не можете зайти на rutor.org? Какой новый адрес рутор? Какое зеркало рутор? Не работает rutor.org и зеркала? Тогда наш торрент специально для вас. Rutor.in неофициальное зеркало rutor. В случае если у Вас заблокирован rutor или вдруг Вы не можете на него зайти, то Вы без труда сможете скачать бесплатно и без рекламы последние новинки кино, игр, сериалов и прочего у нас, на Rutor.in. Не нужно использовать прокси, чтобы зайти на рутор, достаточно воспользоваться нашим ресурсом. Все новые фильмы, игры, сериалы, книги и музыка за 2013 и 2014 годы через торрент бесплатно. Скачивайте фильмы в хорошем качестве, игры для пк, xbox, playstation без регистрации. У нас вы найдете новые Зарубежные сериалы и Русские сериалы 2013, 2014, 2015 годов. Оставайтесь с нами, качайте любимые фильмы, игры, сериалы, книги и музыку.