img image001 image001 image001 image001 image001 image001 image001 image001 image001 image001 image001 image001 image001 image001 image001

Planets Sun Sun Sun
Статистика раздачи
Автор: Nickolas3434 | Размер: 838.24 МБ | Добавлен: 08 авг 2015
Раздают: 64    Качают: 3
Скачать торрент
Скачать торрент
Описание торрента

СообщениеДобавлено: 08 авг 2015 

Жертвоприношение


#77
Год выпуска: 2015
Страна: Россия
Студия: Россия HD
Жанр: Документальный
Продолжительность: 0:27:56
Автор Сценария и Режиссер: Сергей Мингажев

Описание: Свой роман о первой и последней на планете атомной войне Герберт Уэллс написал, когда принцип расщепления атома еще даже не был научной теорией. Тайны ядерной физики только начинали открываться. Ужас атомного взрыва английский фантаст предсказал за три десятилетия до Хиросимы и Нагасаки...

Автор рипа: lrn
Автор записи: Files-х
Сэмпл: sendfile

Тип релиза: HDTVRip 720p
Контейнер: MKV
Видео: 1280x720 (16:9), 25,000 fps, H264, ~4000 kbps avg, ~0.174 bit/pixel
Аудио: 48 kHz, AC3 Dolby Digital, 2/0 (L,R) ch, ~192.00 kbps avg

General
Unique ID : 237120798936393437341066305197320972162 (0xB263CE0187F53C968974967CAD682782)
Complete name : E:uTorrent.TempTempZhertvoprinoshenie.2015.HDTV.720p.x264-lrn.mkv
Format : Matroska
Format version : Version 4 / Version 2
File size : 838 MiB
Duration : 27mn 56s
Overall bit rate : 4 195 Kbps
Movie name : Zhertvoprinoshenie.2015.HDTV.720p.x264-lrn
Encoded date : UTC 2010-02-22 21:41:31
Writing application : mkvmerge v5.9.0 ('On The Loose') built on Dec 9 2012 15:37:01
Writing library : libebml v1.3.0 + libmatroska v1.4.0
DURATION : 00:27:56.120000000
NUMBER_OF_FRAMES : 41903
NUMBER_OF_BYTES : 838347518
_STATISTICS_WRITING_APP : mkvmerge v7.7.0 ('Six Voices') 32bit built on Feb 28 2015 23:23:00
_STATISTICS_WRITING_DATE_UT : 2015-08-07 09:31:44
_STATISTICS_TAGS : BPS DURATION NUMBER_OF_FRAMES NUMBER_OF_BYTES
Video
ID : 1
Format : AVC
Format/Info : Advanced Video Codec
Format profile : High@L4.1
Format settings, CABAC : Yes
Format settings, ReFrames : 8 frames
Codec ID : V_MPEG4/ISO/AVC
Duration : 27mn 56s
Bit rate : 4 000 Kbps
Width : 1 280 pixels
Height : 720 pixels
Display aspect ratio : 16:9
Frame rate mode : Constant
Frame rate : 25.000 fps
Color space : YUV
Chroma subsampling : 4:2:0
Bit depth : 8 bits
Scan type : Progressive
Bits/(Pixel*Frame) : 0.174
Stream size : 783 MiB (93%)
Writing library : x264 core 146 r2538 121396c
Encoding settings : cabac=1 / ref=8 / deblock=1:-3:-3 / analyse=0x3:0x133 / me=umh / subme=9 / psy=1 / psy_rd=1.00:0.00 / mixed_ref=1 / me_range=32 / chroma_me=1 / trellis=2 / 8x8dct=1 / cqm=0 / deadzone=21,11 / fast_pskip=1 / chroma_qp_offset=-2 / threads=12 / lookahead_threads=2 / sliced_threads=0 / nr=0 / decimate=1 / interlaced=0 / bluray_compat=0 / constrained_intra=0 / bframes=8 / b_pyramid=2 / b_adapt=2 / b_bias=0 / direct=3 / weightb=1 / open_gop=0 / weightp=2 / keyint=250 / keyint_min=25 / scenecut=40 / intra_refresh=0 / rc_lookahead=50 / rc=2pass / mbtree=1 / bitrate=4000 / ratetol=1.0 / qcomp=0.60 / qpmin=0 / qpmax=69 / qpstep=4 / cplxblur=20.0 / qblur=0.5 / vbv_maxrate=62500 / vbv_bufsize=78125 / nal_hrd=none / filler=0 / ip_ratio=1.40 / aq=1:1.00
Default : Yes
Forced : No
Audio
ID : 2
Format : AC-3
Format/Info : Audio Coding 3
Mode extension : CM (complete main)
Format settings, Endianness : Big
Codec ID : A_AC3
Duration : 27mn 56s
Bit rate mode : Constant
Bit rate : 192 Kbps
Channel(s) : 2 channels
Channel positions : Front: L R
Sampling rate : 48.0 KHz
Compression mode : Lossy
Stream size : 38.4 MiB (5%)
Language : Russian
Default : Yes
Forced : No
raw [info]: 1280x720p 1:1 @ 25/1 fps (cfr)
x264 [info]: using SAR=1/1
x264 [info]: using cpu capabilities: MMX2 SSE2Fast SSSE3 SSE4.2 AVX
x264 [info]: profile High, level 4.1
x264 [info]: frame I:321 Avg QP:14.39 size:119677
x264 [info]: frame P:11101 Avg QP:16.89 size: 40736
x264 [info]: frame B:30481 Avg QP:20.17 size: 11408
x264 [info]: consecutive B-frames: 3.0% 3.1% 5.4% 72.9% 7.1% 4.8% 1.1% 2.0% 0.7%
x264 [info]: mb I I16..4: 4.7% 68.8% 26.5%
x264 [info]: mb P I16..4: 2.5% 14.0% 1.9% P16..4: 37.0% 18.6% 12.8% 0.8% 0.3% skip:12.2%
x264 [info]: mb B I16..4: 0.5% 2.2% 0.2% B16..8: 28.0% 9.5% 2.3% direct: 7.1% skip:50.2% L0:41.0% L1:45.4% BI:13.6%
x264 [info]: 8x8 transform intra:75.2% inter:56.6%
x264 [info]: direct mvs spatial:98.7% temporal:1.3%
x264 [info]: coded y,uvDC,uvAC intra: 68.9% 50.2% 27.7% inter: 22.4% 15.8% 1.6%
x264 [info]: i16 v,h,dc,p: 43% 27% 7% 22%
x264 [info]: i8 v,h,dc,ddl,ddr,vr,hd,vl,hu: 16% 15% 13% 7% 9% 10% 11% 9% 11%
x264 [info]: i4 v,h,dc,ddl,ddr,vr,hd,vl,hu: 19% 14% 10% 7% 11% 10% 11% 8% 11%
x264 [info]: i8c dc,h,v,p: 55% 21% 17% 7%
x264 [info]: Weighted P-Frames: Y:8.4% UV:2.5%
x264 [info]: ref P L0: 60.6% 9.0% 14.7% 4.9% 3.7% 2.7% 2.4% 1.6% 0.3% 0.0%
x264 [info]: ref B L0: 79.8% 10.6% 4.2% 2.2% 1.6% 1.0% 0.5%
x264 [info]: ref B L1: 95.5% 4.5%
x264 [info]: kb/s:4001.37
encoded 41903 frames, 16.84 fps, 4001.37 kb/s



   Похожие торренты   Торрент   Размер 
В этой теме нет новых непрочитанных сообщений. Жертвоприношение (2015) HDTVRip от Files-х

141 | 4

347.26 МБ

В этой теме нет новых непрочитанных сообщений. Григорий Распутин. Жертвоприношение (2014) HDTVRip от MediaClub

468 | 9

712.75 МБ

В этой теме нет новых непрочитанных сообщений. Жертвоприношение (2015) HDTV 1080i от Files-х

86 | 3

1.04 ГБ

В этой теме нет новых непрочитанных сообщений. Жертвоприношение / Sacrifice (2000) DVD5

0 | 2

3.17 ГБ

В этой теме нет новых непрочитанных сообщений. Жертвоприношение / Sacrifice (2000) DVDRip от Киномагия

3 | 26

1.37 ГБ

В этой теме нет новых непрочитанных сообщений. Жертвоприношение / Sacrifice / Zhao Shi Gu Er (2010) HDRip

187 | 2

1.37 ГБ

В этой теме нет новых непрочитанных сообщений. Жертвоприношение / The Sacrifice / Offret (1986) BDRip от HQCLUB

118 | 4

2.18 ГБ




Вы не можете начинать темы
Вы не можете отвечать на сообщения
Вы не можете редактировать свои сообщения
Вы не можете удалять свои сообщения
Вы не можете добавлять вложения

Перейти:  
Для Мосгорсуда, Роскомнадзора и рекламодателей: mosgorsud-torrent[собачка]yandex.ru
 Вход
ppkBB3cker v.2 © 2008-2014 @ PPK
[ Time : 0.045s | 17 Queries | GZIP : Off ]

Торрент трекер RUTOR.IN, Не можете зайти на rutor.org? Какой новый адрес рутор? Какое зеркало рутор? Не работает rutor.org и зеркала? Тогда наш торрент специально для вас. Rutor.in неофициальное зеркало rutor. В случае если у Вас заблокирован rutor или вдруг Вы не можете на него зайти, то Вы без труда сможете скачать бесплатно и без рекламы последние новинки кино, игр, сериалов и прочего у нас, на Rutor.in. Не нужно использовать прокси, чтобы зайти на рутор, достаточно воспользоваться нашим ресурсом. Все новые фильмы, игры, сериалы, книги и музыка за 2013 и 2014 годы через торрент бесплатно. Скачивайте фильмы в хорошем качестве, игры для пк, xbox, playstation без регистрации. У нас вы найдете новые Зарубежные сериалы и Русские сериалы 2013, 2014, 2015 годов. Оставайтесь с нами, качайте любимые фильмы, игры, сериалы, книги и музыку.