img image001 image001 image001 image001 image001 image001 image001 image001 image001 image001 image001 image001 image001 image001 image001

Planets Sun Sun Sun
Статистика раздачи
Автор: Nickolas3434 | Размер: 1.27 ГБ | Добавлен: 09 авг 2015
Раздают: 227    Качают: 5
Скачать торрент
Скачать торрент
Описание торрента

СообщениеДобавлено: 09 авг 2015 

Осовец. Крепость Духа


#77
Год выпуска: 2015
Страна: Россия
Студия: Россия HD
Жанр: Документальный
Продолжительность: 0:43:22
Автор и режиссер: Виталий Максимов

Описание: Об одном эпизоде Первой мировой войны, когда наступавшие войска кайзеровской Германии с января по июль 1915 года не могли взять русскую крепость, находившуюся на территории современной Польши. За полгода осады немцами было выпущено около 400 тысяч тяжелых снарядов, а затем предпринята не имевшая до этого аналогов по масштабам газовая атака. О рядовых и командирах гарнизона Осовца, их подвиге и дальнейшей судьбе - речь в фильме.

Автор рипа: lrn
Автор записи: Files-х
Сэмпл: sendfile

Тип релиза: HDTVRip 720p
Контейнер: MKV
Видео: 1280x720 (16:9), 25,000 fps, H264, ~4000 kbps avg, ~0.174 bit/pixel
Аудио: 48 kHz, AC3 Dolby Digital, 2/0 (L,R) ch, ~192.00 kbps avg

General
Unique ID : 175799634062517571252663263432026827507 (0x8441C7276CDF64CABA23D4B2F4C72AF3)
Complete name : E:uTorrent.TempTempOsovec.Krepost.Duha.2015.HDTV.720p.x264-lrn.mkv
Format : Matroska
Format version : Version 4 / Version 2
File size : 1.27 GiB
Duration : 43mn 22s
Overall bit rate : 4 194 Kbps
Movie name : Osovec.Krepost.Duha.2015.HDTV.720p.x264-lrn
Encoded date : UTC 2010-02-22 21:41:31
Writing application : mkvmerge v5.9.0 ('On The Loose') built on Dec 9 2012 15:37:01
Writing library : libebml v1.3.0 + libmatroska v1.4.0
DURATION : 00:43:22.040000000
NUMBER_OF_FRAMES : 65051
NUMBER_OF_BYTES : 1301223112
_STATISTICS_WRITING_APP : mkvmerge v7.7.0 ('Six Voices') 32bit built on Feb 28 2015 23:23:00
_STATISTICS_WRITING_DATE_UT : 2015-08-08 20:22:10
_STATISTICS_TAGS : BPS DURATION NUMBER_OF_FRAMES NUMBER_OF_BYTES
Video
ID : 1
Format : AVC
Format/Info : Advanced Video Codec
Format profile : High@L4.1
Format settings, CABAC : Yes
Format settings, ReFrames : 8 frames
Codec ID : V_MPEG4/ISO/AVC
Duration : 43mn 22s
Bit rate : 4 000 Kbps
Width : 1 280 pixels
Height : 720 pixels
Display aspect ratio : 16:9
Frame rate mode : Constant
Frame rate : 25.000 fps
Color space : YUV
Chroma subsampling : 4:2:0
Bit depth : 8 bits
Scan type : Progressive
Bits/(Pixel*Frame) : 0.174
Stream size : 1.19 GiB (93%)
Writing library : x264 core 146 r2538 121396c
Encoding settings : cabac=1 / ref=8 / deblock=1:-3:-3 / analyse=0x3:0x133 / me=umh / subme=9 / psy=1 / psy_rd=1.00:0.00 / mixed_ref=1 / me_range=32 / chroma_me=1 / trellis=2 / 8x8dct=1 / cqm=0 / deadzone=21,11 / fast_pskip=1 / chroma_qp_offset=-2 / threads=12 / lookahead_threads=2 / sliced_threads=0 / nr=0 / decimate=1 / interlaced=0 / bluray_compat=0 / constrained_intra=0 / bframes=8 / b_pyramid=2 / b_adapt=2 / b_bias=0 / direct=3 / weightb=1 / open_gop=0 / weightp=2 / keyint=250 / keyint_min=25 / scenecut=40 / intra_refresh=0 / rc_lookahead=50 / rc=2pass / mbtree=1 / bitrate=4000 / ratetol=1.0 / qcomp=0.60 / qpmin=0 / qpmax=69 / qpstep=4 / cplxblur=20.0 / qblur=0.5 / vbv_maxrate=62500 / vbv_bufsize=78125 / nal_hrd=none / filler=0 / ip_ratio=1.40 / aq=1:1.00
Default : Yes
Forced : No
Audio
ID : 2
Format : AC-3
Format/Info : Audio Coding 3
Mode extension : CM (complete main)
Format settings, Endianness : Big
Codec ID : A_AC3
Duration : 43mn 22s
Bit rate mode : Constant
Bit rate : 192 Kbps
Channel(s) : 2 channels
Channel positions : Front: L R
Sampling rate : 48.0 KHz
Compression mode : Lossy
Stream size : 59.6 MiB (5%)
Language : Russian
Default : Yes
Forced : No
raw [info]: 1280x720p 1:1 @ 25/1 fps (cfr)
x264 [info]: using SAR=1/1
x264 [info]: using cpu capabilities: MMX2 SSE2Fast SSSE3 SSE4.2 AVX
x264 [info]: profile High, level 4.1
x264 [info]: frame I:448 Avg QP:12.71 size: 83608
x264 [info]: frame P:17116 Avg QP:15.78 size: 38657
x264 [info]: frame B:47487 Avg QP:18.37 size: 12680
x264 [info]: consecutive B-frames: 3.7% 6.2% 10.8% 40.1% 15.6% 12.7% 3.8% 4.5% 2.7%
x264 [info]: mb I I16..4: 5.3% 76.3% 18.3%
x264 [info]: mb P I16..4: 2.9% 29.4% 3.5% P16..4: 28.3% 20.6% 9.9% 0.6% 0.1% skip: 4.7%
x264 [info]: mb B I16..4: 0.6% 4.2% 0.5% B16..8: 33.7% 16.0% 3.4% direct: 8.5% skip:33.1% L0:43.3% L1:45.4% BI:11.3%
x264 [info]: 8x8 transform intra:81.5% inter:64.8%
x264 [info]: direct mvs spatial:97.9% temporal:2.1%
x264 [info]: coded y,uvDC,uvAC intra: 75.3% 8.9% 5.9% inter: 29.3% 7.4% 1.1%
x264 [info]: i16 v,h,dc,p: 26% 23% 5% 47%
x264 [info]: i8 v,h,dc,ddl,ddr,vr,hd,vl,hu: 22% 16% 11% 5% 8% 10% 9% 9% 10%
x264 [info]: i4 v,h,dc,ddl,ddr,vr,hd,vl,hu: 23% 14% 8% 6% 11% 13% 10% 8% 8%
x264 [info]: i8c dc,h,v,p: 92% 4% 3% 1%
x264 [info]: Weighted P-Frames: Y:13.0% UV:0.7%
x264 [info]: ref P L0: 54.0% 12.2% 15.4% 5.5% 4.1% 3.2% 2.8% 2.1% 0.6% 0.0%
x264 [info]: ref B L0: 82.2% 8.7% 3.9% 2.0% 1.6% 1.0% 0.6%
x264 [info]: ref B L1: 95.2% 4.8%
x264 [info]: kb/s:4000.62
encoded 65051 frames, 11.46 fps, 4000.62 kb/s



   Похожие торренты   Торрент   Размер 
В этой теме нет новых непрочитанных сообщений. Осовец. Крепость духа (2015) HDTVRip от Files-х

111 | 4

539.49 МБ

В этой теме нет новых непрочитанных сообщений. Осовец. Крепость духа (2015) HDTV 1080i от Files-х

85 | 4

1.92 ГБ

В этой теме нет новых непрочитанных сообщений. Крепость Осовец. Русские не сдаются. Сестры немилосердной войны (2015) DVB от AND03AND

29 | 6

933.29 МБ

В этой теме нет новых непрочитанных сообщений. Хранитель Священного Духа / Seirei no Moribito [01-04 из 04] (2015) HDTVRip 816p от Batafurai Team | L1

113 | 33

7.7 ГБ

В этой теме нет новых непрочитанных сообщений. Крепость над Бугом / Брестская крепость (2011) SATRip от AND01AND

2 | 3

359.85 МБ

В этой теме нет новых непрочитанных сообщений. Крепость: щитом и мечом (2015) WEB-DL 720p | iTunes

1153 | 51

2.38 ГБ

В этой теме нет новых непрочитанных сообщений. Старая крепость Пхеньян / Pyeong-yang-seong (2011) HDTVrip 720p | L1

27 | 3

3.02 ГБ




Вы не можете начинать темы
Вы не можете отвечать на сообщения
Вы не можете редактировать свои сообщения
Вы не можете удалять свои сообщения
Вы не можете добавлять вложения

Перейти:  
Для Мосгорсуда, Роскомнадзора и рекламодателей: mosgorsud-torrent[собачка]yandex.ru
 Вход
ppkBB3cker v.2 © 2008-2014 @ PPK
[ Time : 0.046s | 18 Queries | GZIP : Off ]

cron