img image001 image001 image001 image001 image001 image001 image001 image001 image001 image001 image001 image001 image001 image001 image001

Planets Sun Sun Sun
Статистика раздачи
Автор: Nickolas3434 | Размер: 19.26 ГБ | Добавлен: 12 авг 2015
Раздают: 283    Качают: 59
Скачать торрент
Скачать торрент
Описание торрента

СообщениеДобавлено: 12 авг 2015 


Информация о фильме
Название: Великая Отечественная
Оригинальное название: The Unknown War
Год выхода: 1979
Жанр: Документальный, военная хроника
Режиссер: Роман Кармен, Исаак Клейнерман
В ролях: Рассказывает: Василий Лановой, Ведущий: Берт Ланкастер
О фильме: На материалах, собранных в годы Великой Отечественной, Роман Кармен совместно с американцами создал фильм «Неизвестная война», который стал настоящим откровением для западного зрителя, почти ничего не знавшего о подвиге советского воина и нашего народа, ставшего главным творцом победы над гитлеровским фашизмом. За свои работы Роман Кармен был награждён: в 1942, 1947, 1952 годах Сталинской, 1960 году Ленинской и в 1975 году Государственной премиями. Награжден пятью орденами и множеством медалей. Все, что видел объектив его кинокамеры, тогда еще не было историей, как это стало сегодня. Это была современность, рассказывая о которой, не всегда легко можно было расставить акценты, не погрешить против истины.
С первых дней Великой Отечественной Кармен на фронте. Он возглавил фронтовые киногруппы Центральной студии документальных фильмов. В бой солдаты шли с автоматами в руках, а операторы — с кинокамерой, как потом признавался сам Кармен.
«Великая Отечественная» создавалась совместно с американскими кинематографистами — десятками людей различных профессий — на основе незабываемой летописи войны. Но это произведение также — и прежде всего — последняя творческая работа Романа Кармена.
Страна: СССР-США
Продолжительность: 20 x ~ 00:51:00
Перевод: не требуется
Файл
Кодек: MKV
Качество: DVDRip-AVC
Видео: MPEG-4 AVC, ~ 2800 Кбит/с, 694x572@740x572, 738х566, 740x566
Звук: AC3, 2 ch, 192 Кбит/с






raw [info]: 694x572p 16:15 @ 25/1 fps (cfr)
x264 [info]: using SAR=16/15
x264 [info]: using cpu capabilities: MMX2 SSE2Fast SSSE3 SSE4.2 AVX
x264 [info]: profile High, level 4.1
x264 [info]: frame I:508 Avg QP:18.39 size: 49487
x264 [info]: frame P:18130 Avg QP:21.39 size: 24038
x264 [info]: frame B:53302 Avg QP:23.64 size: 10246
=============================================================================================================
Общее
Уникальный идентификатор : 214703733538882573626772095343151722354 (0xA1866F598042EB6A82487A15D5F2AF72)
Полное имя : I:МОИ РИПЫNeizvestnaj voyna_1978-DVDRip-AVCВойна-1.mkv
Формат : Matroska
Версия формата : Version 2
Размер файла : 1,00 Гбайт
Продолжительность : 47 м.
Общий поток : 2994 Кбит/сек
Дата кодирования : UTC 2015-02-27 05:41:33
Программа кодирования : mkvmerge v5.8.0 ('No Sleep / Pillow') built on Sep 2 2012 15:37:04
Библиотека кодирования : libebml v1.2.3 + libmatroska v1.3.0
Видео
Идентификатор : 1
Формат : AVC
Формат/Информация : Advanced Video Codec
Профиль формата : High@L4.1
Параметр CABAC формата : Да
Параметр ReFrames формата : 15 кадров
Идентификатор кодека : V_MPEG4/ISO/AVC
Продолжительность : 47 м.
Битрейт : 2800 Кбит/сек
Ширина : 694 пикселя
Высота : 572 пикселя
Соотношение сторон : 1,294
Режим частоты кадров : Постоянный
Частота кадров : 25,000 кадров/сек
Цветовое пространство : YUV
Субдискретизация насыщенности : 4:2:0
Битовая глубина : 8 бит
Тип развёртки : Прогрессивная
Бит/(Пиксели*Кадры) : 0.282
Размер потока : 941 Мбайт (92%)
Библиотека кодирования : x264 core 142 r2431 ac76440
Настройки программы : cabac=1 / ref=15 / deblock=1:-2:-2 / analyse=0x3:0x133 / me=umh / subme=10 / psy=1 / psy_rd=1.05:0.10 / mixed_ref=1 / me_range=32 / chroma_me=1 / trellis=2 / 8x8dct=1 / cqm=0 / deadzone=21,11 / fast_pskip=0 / chroma_qp_offset=-3 / threads=12 / lookahead_threads=2 / sliced_threads=0 / nr=0 / decimate=0 / interlaced=0 / bluray_compat=0 / constrained_intra=0 / bframes=9 / b_pyramid=2 / b_adapt=2 / b_bias=0 / direct=3 / weightb=1 / open_gop=0 / weightp=2 / keyint=250 / keyint_min=25 / scenecut=40 / intra_refresh=0 / rc=2pass / mbtree=0 / bitrate=2800 / ratetol=1.0 / qcomp=0.60 / qpmin=0 / qpmax=39 / qpstep=4 / cplxblur=20.0 / qblur=0.5 / ip_ratio=1.40 / pb_ratio=1.30 / aq=1:1.00
Язык : English
Default : Да
Forced : Нет
Основные цвета : BT.601 PAL
Характеристики трансфера : BT.470 System B, BT.470 System G
Коэффициенты матрицы : BT.601
colour_range : Limited
Аудио
Идентификатор : 2
Формат : AC-3
Формат/Информация : Audio Coding 3
Расширение режима : CM (complete main)
Параметр Endianness формата : Big
Идентификатор кодека : A_AC3
Продолжительность : 47 м.
Вид битрейта : Постоянный
Битрейт : 192 Кбит/сек
Каналы : 2 канала
Расположение каналов : Front: L R
Частота : 48,0 КГц
Битовая глубина : 16 бит
Метод сжатия : С потерями
Размер потока : 65,9 Мбайт (6%)
Язык : Russian
Default : Да
Forced : Нет

Фильм 1-й. «22 июня 1941».
Фильм 2-й. «Битва за Москву».
Фильм 3-й. «Блокада Ленинграда».
Фильм 4-й. «Партизаны. Война в Тылу Врага».
Фильм 5-й. «На Восток».
Фильм 6-й. «Война в Арктике».
Фильм 7-й. «Оборона Сталинграда».
Фильм 8-й. «Победа под Сталинградом».
Фильм 9-й. «Битва за Кавказ».
Фильм 10-й. «Величайшее Танковое Сражение».
Фильм 11-й. «Война в Воздухе».
Фильм 12-й. «Битва на Море».
Фильм 13-й. «Освобождение Украины».
Фильм 14-й. «Освобождение Белоруссии».
Фильм 15-й. «От Балкан до Вены».
Фильм 16-й. «Освобождение Польши».
Фильм 17-й. «Союзники».
Фильм 18-й. «Битва за Берлин».
Фильм 19-й. «Последнее Сражение Войны».
Фильм 20-й. «Неизвестный Солдат».

Сравнение с исходником:http://screenshotcomparison.com/comparison/113650/picture:0
За оцифровку на DVD огромная благодарность hromser.
Релиз от:
Автор релиза:



   Похожие торренты   Торрент   Размер 
В этой теме нет новых непрочитанных сообщений. Великая Отечественная (Неизвестная война) (1-20 серии из 20) / The Unknown War (Роман Кармен, Гутман Илья, Тенгиз Семенов, Григорьев Игорь) [1978, документальный, военный, кинохроника, история, SATRip]

2 | 0

13.39 ГБ

В этой теме нет новых непрочитанных сообщений. Великая Отечественная / The Unknown War (1979) DVDRip by гаврила

94 | 38

8.74 ГБ

В этой теме нет новых непрочитанных сообщений. Ивановский Артём - Великая Отечественная: Неизвестная война. Утерянные победы Красной Армии (2008) DJVU, PDF

90 | 9

61.07 МБ

В этой теме нет новых непрочитанных сообщений. Великая Отечественная / The Unknown War [01-20 из 20] (1978) DVDRip от MediaClub | КПК

267 | 37

4.24 ГБ

В этой теме нет новых непрочитанных сообщений. Великая Отечественная Война 1941-1945гг. (2000) DVDRip

147 | 103

2.05 ГБ

В этой теме нет новых непрочитанных сообщений. Великая Отечественная война (Восточный фронт) (3 серии из 3) (1993) DVDRip

26 | 18

2.04 ГБ

В этой теме нет новых непрочитанных сообщений. Великая Отечественная война / World War II, The Eastern front [01-03 из 03] (1993 ) DVDRip-AVC от Тorrent-Хzona

9 | 3

2.07 ГБ




Вы не можете начинать темы
Вы не можете отвечать на сообщения
Вы не можете редактировать свои сообщения
Вы не можете удалять свои сообщения
Вы не можете добавлять вложения

Перейти:  
Для Мосгорсуда, Роскомнадзора и рекламодателей: mosgorsud-torrent[собачка]yandex.ru
 Вход
ppkBB3cker v.2 © 2008-2014 @ PPK
[ Time : 0.057s | 17 Queries | GZIP : Off ]

cron