img image001 image001 image001 image001 image001 image001 image001 image001 image001 image001 image001 image001 image001 image001 image001

Planets Sun Sun Sun
Статистика раздачи
Автор: Nickolas3434 | Размер: 1.22 ГБ | Добавлен: 14 авг 2015
Раздают: 15    Качают: 1
Скачать торрент
Скачать торрент
Описание торрента

СообщениеДобавлено: 14 авг 2015 

В Защиту Слонов / An Apology to Elephants


#77
Год выпуска: 2013
Страна: США
Жанр: Документальный
Продолжительность: 0:38:11
Перевод: Профессиональный (двухголосый закадровый) | студия "NOVAMEDiA" по заказу "AMEDiA TV"
Режиссер: Эми Шатц / Amy Schatz

Описание: Всемирный день слонов (World Elephant Day) отмечается 12 августа начиная с 2012 года. Документальный фильм-расследование от ХБО. Самые большие наземные животные оказались и самыми беззащитными. Они находятся на грани вымирания! Незнание равносильно безразличию.


Автор рипа: lrn
Автор записи: Alexin29
Сэмпл: sendfile

Тип релиза: HDTVRip 720p
Контейнер: MKV
Видео: 1280x720 (16:9), 25,000 fps, H264, ~4000 kbps avg, ~0.174 bit/pixel
Аудио#1: 48 kHz, AC3 Dolby Digital, 3/2 (L,C,R,l,r) + LFE ch, ~384.00 kbps avg | студия "NOVAMEDiA"
Аудио#2: 48 kHz, AC3 Dolby Digital, 2/0 (L,R) ch, ~192.00 kbps avg | Оригинал

General
Unique ID : 191103474605849395620901077529540710603 (0x8FC530BF7EC678D99F376258CF6C50CB)
Complete name : E:uTorrent.TempTempAn.Apology.to.Elephants.2013.HDTV.720p.x264-RUS-ENG-lrn.mkv
Format : Matroska
Format version : Version 4 / Version 2
File size : 1.22 GiB
Duration : 38mn 11s
Overall bit rate : 4 577 Kbps
Movie name : An.Apology.to.Elephants.2013.HDTV.720p.x264-RUS-ENG-lrn
Encoded date : UTC 2010-02-22 21:41:31
Writing application : mkvmerge v5.9.0 ('On The Loose') built on Dec 9 2012 15:37:01
Writing library : libebml v1.3.0 + libmatroska v1.4.0
DURATION : 00:38:11.200000000
NUMBER_OF_FRAMES : 57280
NUMBER_OF_BYTES : 1145422696
_STATISTICS_WRITING_APP : mkvmerge v7.7.0 ('Six Voices') 32bit built on Feb 28 2015 23:23:00
_STATISTICS_WRITING_DATE_UT : 2015-08-13 07:57:56
_STATISTICS_TAGS : BPS DURATION NUMBER_OF_FRAMES NUMBER_OF_BYTES
Video
ID : 1
Format : AVC
Format/Info : Advanced Video Codec
Format profile : High@L4.1
Format settings, CABAC : Yes
Format settings, ReFrames : 8 frames
Codec ID : V_MPEG4/ISO/AVC
Duration : 38mn 11s
Bit rate : 4 000 Kbps
Width : 1 280 pixels
Height : 720 pixels
Display aspect ratio : 16:9
Frame rate mode : Constant
Frame rate : 25.000 fps
Color space : YUV
Chroma subsampling : 4:2:0
Bit depth : 8 bits
Scan type : Progressive
Bits/(Pixel*Frame) : 0.174
Stream size : 1.04 GiB (85%)
Writing library : x264 core 146 r2538 121396c
Encoding settings : cabac=1 / ref=8 / deblock=1:-3:-3 / analyse=0x3:0x133 / me=umh / subme=9 / psy=1 / psy_rd=1.00:0.00 / mixed_ref=1 / me_range=32 / chroma_me=1 / trellis=2 / 8x8dct=1 / cqm=0 / deadzone=21,11 / fast_pskip=1 / chroma_qp_offset=-2 / threads=12 / lookahead_threads=2 / sliced_threads=0 / nr=0 / decimate=1 / interlaced=0 / bluray_compat=0 / constrained_intra=0 / bframes=8 / b_pyramid=2 / b_adapt=2 / b_bias=0 / direct=3 / weightb=1 / open_gop=0 / weightp=2 / keyint=250 / keyint_min=25 / scenecut=40 / intra_refresh=0 / rc_lookahead=50 / rc=2pass / mbtree=1 / bitrate=4000 / ratetol=1.0 / qcomp=0.60 / qpmin=0 / qpmax=69 / qpstep=4 / cplxblur=20.0 / qblur=0.5 / vbv_maxrate=62500 / vbv_bufsize=78125 / nal_hrd=none / filler=0 / ip_ratio=1.40 / aq=1:1.00
Default : Yes
Forced : No
Audio #1
ID : 2
Format : AC-3
Format/Info : Audio Coding 3
Mode extension : CM (complete main)
Format settings, Endianness : Big
Codec ID : A_AC3
Duration : 38mn 11s
Bit rate mode : Constant
Bit rate : 384 Kbps
Channel(s) : 6 channels
Channel positions : Front: L C R, Side: L R, LFE
Sampling rate : 48.0 KHz
Compression mode : Lossy
Stream size : 105 MiB (8%)
Language : Russian
Default : Yes
Forced : Yes
Audio #2
ID : 3
Format : AC-3
Format/Info : Audio Coding 3
Mode extension : CM (complete main)
Format settings, Endianness : Big
Codec ID : A_AC3
Duration : 38mn 11s
Bit rate mode : Constant
Bit rate : 192 Kbps
Channel(s) : 2 channels
Channel positions : Front: L R
Sampling rate : 48.0 KHz
Compression mode : Lossy
Stream size : 52.4 MiB (4%)
Language : English
Default : No
Forced : No
raw [info]: 1280x720p 1:1 @ 25/1 fps (cfr)
x264 [info]: using SAR=1/1
x264 [info]: using cpu capabilities: MMX2 SSE2Fast SSSE3 SSE4.2 AVX
x264 [info]: profile High, level 4.1
x264 [info]: frame I:488 Avg QP:16.64 size:141028
x264 [info]: frame P:13410 Avg QP:20.05 size: 41198
x264 [info]: frame B:43382 Avg QP:22.85 size: 12082
x264 [info]: consecutive B-frames: 2.4% 4.2% 7.8% 31.9% 21.1% 19.8% 6.5% 4.4% 1.9%
x264 [info]: mb I I16..4: 5.4% 75.3% 19.3%
x264 [info]: mb P I16..4: 2.2% 13.8% 1.2% P16..4: 43.5% 18.2% 12.0% 0.4% 0.1% skip: 8.5%
x264 [info]: mb B I16..4: 0.2% 1.4% 0.2% B16..8: 37.0% 9.0% 2.1% direct: 8.5% skip:41.7% L0:41.2% L1:46.7% BI:12.0%
x264 [info]: 8x8 transform intra:79.3% inter:68.8%
x264 [info]: direct mvs spatial:98.8% temporal:1.2%
x264 [info]: coded y,uvDC,uvAC intra: 78.0% 70.3% 33.6% inter: 27.8% 23.9% 1.3%
x264 [info]: i16 v,h,dc,p: 24% 23% 8% 44%
x264 [info]: i8 v,h,dc,ddl,ddr,vr,hd,vl,hu: 11% 12% 6% 8% 12% 13% 13% 11% 14%
x264 [info]: i4 v,h,dc,ddl,ddr,vr,hd,vl,hu: 11% 11% 4% 8% 13% 14% 14% 11% 14%
x264 [info]: i8c dc,h,v,p: 44% 25% 16% 15%
x264 [info]: Weighted P-Frames: Y:6.6% UV:2.9%
x264 [info]: ref P L0: 50.5% 13.5% 17.3% 5.6% 4.6% 3.2% 3.0% 2.0% 0.3% 0.0%
x264 [info]: ref B L0: 83.0% 9.3% 3.6% 1.7% 1.2% 0.7% 0.4%
x264 [info]: ref B L1: 95.1% 4.9%
x264 [info]: kb/s:3999.38
encoded 57280 frames, 14.77 fps, 3999.38 kb/s



   Похожие торренты   Торрент   Размер 
В этой теме нет новых непрочитанных сообщений. В Защиту Слонов / An Apology to Elephants (2013) HDTVRip

21 | 8

698.68 МБ

В этой теме нет новых непрочитанных сообщений. Мечта слонов / Elephants Dream (2006) BDRip | L2

0 | 3

229.84 МБ

В этой теме нет новых непрочитанных сообщений. Повелитель слонов / Le maitre des elephants (1995) DVDRip

1 | 0

993.15 МБ

В этой теме нет новых непрочитанных сообщений. Мечта слонов / Elephants Dream (2006) BDRip от HQCLUB

0 | 4

230.16 МБ

В этой теме нет новых непрочитанных сообщений. Мечта слонов / Elephants Dream (2006) BDRip от HQ-ViDEO

0 | 3

194.98 МБ

В этой теме нет новых непрочитанных сообщений. Тайны дикой природы Индии: В царстве слонов / Королевство слонов / Secrets of Wild India: Elephant Kingdom (2012) HDTVRip от Leo.pard | D

12 | 4

700.71 МБ

В этой теме нет новых непрочитанных сообщений. Тайны дикой природы Индии: В царстве слонов / Королевство слонов / Secrets of Wild India: Elephant Kingdom (2012) HDTVRip-AVC от Leo.pard

6 | 2

699.51 МБ




Вы не можете начинать темы
Вы не можете отвечать на сообщения
Вы не можете редактировать свои сообщения
Вы не можете удалять свои сообщения
Вы не можете добавлять вложения

Перейти:  
Для Мосгорсуда, Роскомнадзора и рекламодателей: mosgorsud-torrent[собачка]yandex.ru
 Вход
ppkBB3cker v.2 © 2008-2014 @ PPK
[ Time : 0.065s | 15 Queries | GZIP : Off ]

Торрент трекер RUTOR.IN, Не можете зайти на rutor.org? Какой новый адрес рутор? Какое зеркало рутор? Не работает rutor.org и зеркала? Тогда наш торрент специально для вас. Rutor.in неофициальное зеркало rutor. В случае если у Вас заблокирован rutor или вдруг Вы не можете на него зайти, то Вы без труда сможете скачать бесплатно и без рекламы последние новинки кино, игр, сериалов и прочего у нас, на Rutor.in. Не нужно использовать прокси, чтобы зайти на рутор, достаточно воспользоваться нашим ресурсом. Все новые фильмы, игры, сериалы, книги и музыка за 2013 и 2014 годы через торрент бесплатно. Скачивайте фильмы в хорошем качестве, игры для пк, xbox, playstation без регистрации. У нас вы найдете новые Зарубежные сериалы и Русские сериалы 2013, 2014, 2015 годов. Оставайтесь с нами, качайте любимые фильмы, игры, сериалы, книги и музыку.