img image001 image001 image001 image001 image001 image001 image001 image001 image001 image001 image001 image001 image001 image001 image001

Planets Sun Sun Sun
Статистика раздачи
Автор: Nickolas3434 | Размер: 1.43 ГБ | Добавлен: 15 авг 2015
Раздают: 23    Качают: 2
Скачать торрент
Скачать торрент
Описание торрента

СообщениеДобавлено: 15 авг 2015 


Информация о фильме
Оригинальное название:Дом 2. Lite
Год выхода: 13/08/2015
Жанр: Реалити Шоу
Выпущено: Россия, ТНТ
Ведущий: Ксения Бородина, Ольга Бузова
О фильме: Цель этой игры - построить любовь. «ДОМ-2» - шоу отношений. Участники строят дом, но это только внешняя сторона вопроса. На самом деле девушки и парни должны найти себе пару и доказать свою любовь - только так они смогут выиграть дом. Участником шоу «ДОМ-2» может стать каждый, кто мечтает построить отношения с обаятельной девчонкой или ярким парнем, верит, что сумеет изменить свою жизнь к лучшему, хочет завоевать любовь миллионов телезрителей, знает, как сделать проект еще ярче, и одержим желанием сыграть в захватывающую игру, где на кону любовь и деньги.
Официальный сайт
Качество: WEB-DLRip (720p)
Видео: MPEG-4 AVC, ~ 3000 Кбит/с, 1280x720, 25 кадр/с
Аудио: AC3, 2 ch, 192 Кбит/с
Размер: 1.43 ГБ
Продолжительность: 01:06:45
Язык: Русский
Общее
Уникальный идентификатор : 239482198894712239168895837421159298976 (0xB42A9803453A13C28E907E8F89B3B7A0)
Полное имя : D:ЗагрузкиДОМ-2 Lite 4112 день.mkv
Формат : Matroska
Версия формата : Version 2
Размер файла : 1,43 Гбайт
Продолжительность : 1 ч. 6 м.
Общий поток : 3064 Кбит/сек
Дата кодирования : UTC 2015-08-13 19:48:19
Программа кодирования : mkvmerge v5.6.0 ('Kenya Kane') built on May 27 2012 16:44:04
Библиотека кодирования : libebml v1.2.3 + libmatroska v1.3.0
Видео
Идентификатор : 1
Формат : AVC
Формат/Информация : Advanced Video Codec
Профиль формата : High@L4.0
Параметр CABAC формата : Да
Параметр ReFrames формата : 8 кадров
Идентификатор кодека : V_MPEG4/ISO/AVC
Продолжительность : 1 ч. 6 м.
Битрейт : 2811 Кбит/сек
Ширина : 1280 пикселей
Высота : 720 пикселей
Соотношение сторон : 16:9
Режим частоты кадров : Постоянный
Частота кадров : 25,000 кадров/сек
Цветовое пространство : YUV
Субдискретизация насыщенности : 4:2:0
Битовая глубина : 8 бит
Тип развёртки : Прогрессивная
Бит/(Пиксели*Кадры) : 0.122
Размер потока : 1,31 Гбайт (92%)
Библиотека кодирования : x264 core 142 r2455 021c0dc
Настройки программы : cabac=1 / ref=8 / deblock=1:-1:-1 / analyse=0x3:0x133 / me=umh / subme=9 / psy=1 / psy_rd=1.00:0.15 / mixed_ref=1 / me_range=16 / chroma_me=1 / trellis=2 / 8x8dct=1 / cqm=0 / deadzone=21,11 / fast_pskip=1 / chroma_qp_offset=-3 / threads=24 / lookahead_threads=2 / sliced_threads=0 / nr=0 / decimate=1 / interlaced=0 / bluray_compat=0 / constrained_intra=0 / bframes=3 / b_pyramid=2 / b_adapt=2 / b_bias=0 / direct=3 / weightb=1 / open_gop=0 / weightp=2 / keyint=100 / keyint_min=10 / scenecut=40 / intra_refresh=0 / rc_lookahead=60 / rc=crf / mbtree=1 / crf=17.0 / qcomp=0.60 / qpmin=0 / qpmax=69 / qpstep=4 / vbv_maxrate=3600 / vbv_bufsize=3600 / crf_max=0.0 / nal_hrd=none / filler=0 / ip_ratio=1.40 / aq=1:1.00
Язык : Russian
Default : Да
Forced : Нет
Аудио
Идентификатор : 2
Формат : AC-3
Формат/Информация : Audio Coding 3
Расширение режима : CM (complete main)
Параметр Endianness формата : Big
Идентификатор кодека : A_AC3
Продолжительность : 1 ч. 6 м.
Вид битрейта : Постоянный
Битрейт : 192 Кбит/сек
Каналы : 2 канала
Расположение каналов : Front: L R
Частота : 48,0 КГц
Битовая глубина : 16 бит
Метод сжатия : С потерями
Размер потока : 91,7 Мбайт (6%)
Язык : Russian
Default : Да
Forced : Нет







   Похожие торренты   Торрент   Размер 
В этой теме нет новых непрочитанных сообщений. Дом 2. Lite [4090 выпуск от 22.07] (2015) WEB-DLRip 720p

6 | 0

1.42 ГБ

В этой теме нет новых непрочитанных сообщений. Дом 2. Lite [4111 выпуск от 12.08] (2015) WEB-DLRip 720p

7 | 5

1.46 ГБ

В этой теме нет новых непрочитанных сообщений. Дом 2. Lite [4097 выпуск от 29.07] (2015) WEB-DLRip 720p

30 | 12

1.4 ГБ

В этой теме нет новых непрочитанных сообщений. Дом 2. Lite [4087 выпуск от 19.07] (2015) WEB-DLRip 720p

8 | 0

1.01 ГБ

В этой теме нет новых непрочитанных сообщений. Дом 2. Lite [4091 выпуск от 23.07] (2015) WEB-DLRip 720p

10 | 4

1.42 ГБ

В этой теме нет новых непрочитанных сообщений. Дом 2. Lite [4079 выпуск от 11.07] (2015) WEB-DLRip 720p

18 | 3

1.02 ГБ

В этой теме нет новых непрочитанных сообщений. Дом 2. Lite [4078 выпуск от 10.07] (2015) WEB-DLRip 720p

10 | 4

1.43 ГБ




Вы не можете начинать темы
Вы не можете отвечать на сообщения
Вы не можете редактировать свои сообщения
Вы не можете удалять свои сообщения
Вы не можете добавлять вложения

Перейти:  
Для Мосгорсуда, Роскомнадзора и рекламодателей: mosgorsud-torrent[собачка]yandex.ru
 Вход
ppkBB3cker v.2 © 2008-2014 @ PPK
[ Time : 0.029s | 14 Queries | GZIP : Off ]

Торрент трекер RUTOR.IN, Не можете зайти на rutor.org? Какой новый адрес рутор? Какое зеркало рутор? Не работает rutor.org и зеркала? Тогда наш торрент специально для вас. Rutor.in неофициальное зеркало rutor. В случае если у Вас заблокирован rutor или вдруг Вы не можете на него зайти, то Вы без труда сможете скачать бесплатно и без рекламы последние новинки кино, игр, сериалов и прочего у нас, на Rutor.in. Не нужно использовать прокси, чтобы зайти на рутор, достаточно воспользоваться нашим ресурсом. Все новые фильмы, игры, сериалы, книги и музыка за 2013 и 2014 годы через торрент бесплатно. Скачивайте фильмы в хорошем качестве, игры для пк, xbox, playstation без регистрации. У нас вы найдете новые Зарубежные сериалы и Русские сериалы 2013, 2014, 2015 годов. Оставайтесь с нами, качайте любимые фильмы, игры, сериалы, книги и музыку.