img image001 image001 image001 image001 image001 image001 image001 image001 image001 image001 image001 image001 image001 image001 image001

Planets Sun Sun Sun
Статистика раздачи
Автор: Nickolas3434 | Размер: 10.16 ГБ | Добавлен: 20 авг 2015
Раздают: 314    Качают: 18
Скачать торрент
Скачать торрент
Описание торрента

СообщениеДобавлено: 20 авг 2015 


Название: Топ Гир: Спецвыпуск в Бирме
Оригинальное название: Top Gear: The Burma Special
Год выпуска: 2014
Жанр: Авто-шоу
Выпущено: Великобритания, British Broadcasting Corporation (BBC)
Режиссер: Кит Робинсон
В ролях: Джереми Кларксон, Ричард Хаммонд, Джеймс Мэй, Стиг
О фильме: Топ Гир — популярная английская телепередача, посвящённая автомобилям. Первые выпуски передачи появились в 1977 году. Эта передача была просто пересказ журнала, в течение долгого времени формат передачи не менялся. Но в 2002 году, произошел перезапуск цикла, и вместо сухого пересказа, появился современный «Top Gear», с юмором, приколами, и фирменными тестами. Передачу стали вести Джереми Кларксон, Ричард Хаммонд, Джеймс Мэй и супер секретный водитель-испытатель Стиг. Аудитория программ в странах официальной трансляции составляет около 350 миллионов человек. В выпуске: В увлекательном и полном приключений путешествии Ричард Хаммонд, Джереми Кларксон и Джеймс Мэй отправятся через Бирму в Таиланд для того, чтобы взяться за сооружение моста через реку Квай.

Качество: BDRip 720p (исходник Blu-ray)
Контейнер (Расширение): MKV
Видео кодек: AVC
Аудио кодек: AC3
Видео: 1280x722, 9 251 Кбит/сек, 25 кадр/сек, 0,400 Бит/[Пиксели*Кадры]
Аудио №1: русский / AC3 / 2.0 / 48 kHz / 640 kbps / 16 bit |Профессиональный многоголосый, AlexFilm|
Аудио №2: английский / AC3 / 2.0 / 48 kHz / 640 kbps / 16 bit
Автор рипа: Сообщество:
Format : Matroska
Format version : Version 2
File size : 10.2 GiB
Duration : 2h 15mn
Overall bit rate : 10.7 Mbps
Movie name : Top Gear: The Burma Special.(2014).BDRip.720p.[denis100]
Encoded date : UTC 2015-08-19 18:14:48
Writing application : mkvmerge v5.8.0 ('No Sleep / Pillow') built on Sep 2 2012 15:37:04
Writing library : libebml v1.2.3 + libmatroska v1.3.0
Video
ID : 1
Format : AVC
Format/Info : Advanced Video Codec
Format profile : High@L4.1
Format settings, CABAC : Yes
Format settings, ReFrames : 8 frames
Codec ID : V_MPEG4/ISO/AVC
Duration : 2h 15mn
Bit rate : 9 251 Kbps
Width : 1 280 pixels
Height : 722 pixels
Display aspect ratio : 16:9
Frame rate mode : Constant
Frame rate : 25.000 fps
Color space : YUV
Chroma subsampling : 4:2:0
Bit depth : 8 bits
Scan type : Progressive
Bits/(Pixel*Frame) : 0.400
Stream size : 8.74 GiB (86%)
Title : Top Gear: The Burma Special.(2014).BDRip.720p.[denis100]
Writing library : x264 core 148 r2579 73ae2d1
Encoding settings : cabac=1 / ref=8 / deblock=1:-3:-3 / analyse=0x3:0x133 / me=umh / subme=11 / psy=1 / psy_rd=1.00:0.15 / mixed_ref=1 / me_range=48 / chroma_me=1 / trellis=2 / 8x8dct=1 / cqm=0 / deadzone=21,11 / fast_pskip=0 / chroma_qp_offset=-3 / threads=6 / lookahead_threads=1 / sliced_threads=0 / nr=0 / decimate=1 / interlaced=0 / bluray_compat=0 / constrained_intra=0 / bframes=10 / b_pyramid=2 / b_adapt=2 / b_bias=0 / direct=1 / weightb=1 / open_gop=0 / weightp=2 / keyint=250 / keyint_min=25 / scenecut=40 / intra_refresh=0 / rc=crf / mbtree=0 / crf=18.0 / qcomp=0.60 / qpmin=0 / qpmax=69 / qpstep=4 / ip_ratio=1.40 / pb_ratio=1.30 / aq=1:1.00
Language : English
Default : Yes
Forced : No
Audio #1
ID : 2
Format : AC-3
Format/Info : Audio Coding 3
Mode extension : CM (complete main)
Format settings, Endianness : Big
Codec ID : A_AC3
Duration : 2h 15mn
Bit rate mode : Constant
Bit rate : 640 Kbps
Channel(s) : 2 channels
Channel positions : Front: L R
Sampling rate : 48.0 KHz
Bit depth : 16 bits
Compression mode : Lossy
Stream size : 619 MiB (6%)
Title : Профессиональный многоголосый, AlexFilm
Language : Russian
Default : Yes
Forced : No
Audio #2
ID : 3
Format : AC-3
Format/Info : Audio Coding 3
Mode extension : CM (complete main)
Format settings, Endianness : Big
Codec ID : A_AC3
Duration : 2h 15mn
Bit rate mode : Constant
Bit rate : 640 Kbps
Channel(s) : 2 channels
Channel positions : Front: L R
Sampling rate : 48.0 KHz
Bit depth : 16 bits
Compression mode : Lossy
Stream size : 619 MiB (6%)
Language : English
Default : No
Forced : No



   Похожие торренты   Торрент   Размер 
В этой теме нет новых непрочитанных сообщений. Топ Гир: Спецвыпуск в Патагонии / Top Gear: Patagonia Special [01-02 из 2] (2014) HDTVRip-AVC от NNNB

171 | 37

3.18 ГБ

В этой теме нет новых непрочитанных сообщений. Топ Гир: Спецвыпуск в Патагонии (1-2 части) / Top Gear: Top Gear: Patagonia Special (part 1-2) [02x02] (2014) HDTV 1080i от AlexFilm

2228 | 521

6.22 ГБ

В этой теме нет новых непрочитанных сообщений. Топ Гир: Спецвыпуск в Патагонии. 1 часть / Top Gear: Patagonia Special. Part 1 (2014) HDTVRip 720p | P

489 | 3

2.29 ГБ

В этой теме нет новых непрочитанных сообщений. Топ Гир: Спецвыпуск в Патагонии. 1 часть / Top Gear: Patagonia Special. Part 1 (2014) HDTVRip 720p | P

330 | 64

4.72 ГБ

В этой теме нет новых непрочитанных сообщений. Топ Гир: Спецвыпуск в Патагонии / Top Gear: Patagonia Special [01-02 из 2] (2014) HDTVRip 720p | Gears Media

284 | 46

3.47 ГБ

В этой теме нет новых непрочитанных сообщений. Топ Гир - Полярный Спецвыпуск / Top Gear - Polar Special (Director's Cut) (2007) BDRip 720p от Filmrus

41 | 10

3.01 ГБ

В этой теме нет новых непрочитанных сообщений. Топ Гир: Спецвыпуск в Патагонии / Top Gear: Patagonia Special [01-02 из 2] (2014) HDTVRip | Gears Media

340 | 57

1.48 ГБ




Вы не можете начинать темы
Вы не можете отвечать на сообщения
Вы не можете редактировать свои сообщения
Вы не можете удалять свои сообщения
Вы не можете добавлять вложения

Перейти:  
Для Мосгорсуда, Роскомнадзора и рекламодателей: mosgorsud-torrent[собачка]yandex.ru
 Вход
ppkBB3cker v.2 © 2008-2014 @ PPK
[ Time : 0.046s | 15 Queries | GZIP : Off ]

Торрент трекер RUTOR.IN, Не можете зайти на rutor.org? Какой новый адрес рутор? Какое зеркало рутор? Не работает rutor.org и зеркала? Тогда наш торрент специально для вас. Rutor.in неофициальное зеркало rutor. В случае если у Вас заблокирован rutor или вдруг Вы не можете на него зайти, то Вы без труда сможете скачать бесплатно и без рекламы последние новинки кино, игр, сериалов и прочего у нас, на Rutor.in. Не нужно использовать прокси, чтобы зайти на рутор, достаточно воспользоваться нашим ресурсом. Все новые фильмы, игры, сериалы, книги и музыка за 2013 и 2014 годы через торрент бесплатно. Скачивайте фильмы в хорошем качестве, игры для пк, xbox, playstation без регистрации. У нас вы найдете новые Зарубежные сериалы и Русские сериалы 2013, 2014, 2015 годов. Оставайтесь с нами, качайте любимые фильмы, игры, сериалы, книги и музыку.
cron