img image001 image001 image001 image001 image001 image001 image001 image001 image001 image001 image001 image001 image001 image001 image001

Planets Sun Sun Sun
Статистика раздачи
Автор: Nickolas3434 | Размер: 517.59 МБ | Добавлен: 21 авг 2015
Раздают: 110    Качают: 2
Скачать торрент
Скачать торрент
Описание торрента

СообщениеДобавлено: 21 авг 2015 


Год выпуска: 2015
Страна: Россия
Студия: Телеканал "Дождь"
Жанр: Ток-Шоу
Продолжительность: 00:48:44
Перевод: Не требуется
Описание: С 20 июля каждый понедельник в 22:00 на "Дожде" в эфире новый проект Светланы Сорокиной — интеллектуальный дискуссионный клуб.
Сегодняшняя тема — Рост смертности. Грипп, водка или реформа: что убивает россиян?
Тип релиза: HDTVRip
Контейнер: AVI
Видео: DivX 720х400 16:9 1 343 Kbps 30.000 fps
Аудио: Мр3 128 Kbps 44.1 KHz 2 channels
Format : AVI
Format/Info : Audio Video Interleave
File size : 518 MiB
Duration : 48mn 44s
Overall bit rate : 1 484 Kbps
Video
ID : 1
Format : MPEG-4 Visual
Codec ID : DIV3
Codec ID/Hint : DivX 3 Low
Duration : 48mn 44s
Bit rate : 1 343 Kbps
Width : 720 pixels
Height : 400 pixels
Display aspect ratio : 16:9
Frame rate : 30.000 fps
Color space : YUV
Chroma subsampling : 4:2:0
Bit depth : 8 bits
Compression mode : Lossy
Bits/(Pixel*Frame) : 0.155
Stream size : 468 MiB (90%)
Audio
ID : 0
Format : MPEG Audio
Format version : Version 1
Format profile : Layer 3
Mode : Joint stereo
Mode extension : MS Stereo
Codec ID : 55
Codec ID/Hint : MP3
Duration : 6s 998ms
Bit rate mode : Constant
Bit rate : 128 Kbps
Channel(s) : 2 channels
Sampling rate : 44.1 KHz
Compression mode : Lossy
Stream size : 44.6 MiB (9%)
Alignment : Aligned on interleaves
Interleave, duration : 33 ms (1.00 video frame)
Writing library : LAME3.99.5



   Похожие торренты   Торрент   Размер 
В этой теме нет новых непрочитанных сообщений. Сорокина. Высшее образование в России [14.09] (2015) HDTVRip

13 | 1

546.7 МБ

В этой теме нет новых непрочитанных сообщений. Сорокина. Династический скандал [03.08] (2015) HDTVRip 720p

19 | 1

1.87 ГБ

В этой теме нет новых непрочитанных сообщений. Сорокина. Честно о бедности [08.08] (2015) HDTVRip 720p

93 | 4

1.82 ГБ

В этой теме нет новых непрочитанных сообщений. Сорокина. Владимир и другие герои России [20.07] (2015) HDTVRip 720p

25 | 6

1.61 ГБ

В этой теме нет новых непрочитанных сообщений. Сорокина. Спецэфир к 5-летию «Дождя» [28.04] (2015) TVRip

46 | 7

480.62 МБ

В этой теме нет новых непрочитанных сообщений. Синдеева. Светлана Сорокина [эфир от 25.01] (2015) WEBRip

36 | 6

716.12 МБ

В этой теме нет новых непрочитанных сообщений. Огромный рост / Growing the Big One (2010) DVDRip от KinoZalSat

6 | 2

1.36 ГБ




Вы не можете начинать темы
Вы не можете отвечать на сообщения
Вы не можете редактировать свои сообщения
Вы не можете удалять свои сообщения
Вы не можете добавлять вложения

Перейти:  
Для Мосгорсуда, Роскомнадзора и рекламодателей: mosgorsud-torrent[собачка]yandex.ru
 Вход
ppkBB3cker v.2 © 2008-2014 @ PPK
[ Time : 0.034s | 15 Queries | GZIP : Off ]

cron