img image001 image001 image001 image001 image001 image001 image001 image001 image001 image001 image001 image001 image001 image001 image001

Planets Sun Sun Sun
Статистика раздачи
Автор: Nickolas3434 | Размер: 1.2 ГБ | Добавлен: 01 сен 2015
Раздают: 15    Качают: 1
Скачать торрент
Скачать торрент
Описание торрента

СообщениеДобавлено: 01 сен 2015 


Год выпуска: 2015
Страна: Россия
Студия: Телеканал "Дождь"
Жанр: Аналитика
Продолжительность: 00:57:06
Перевод: Не требуется
Описание: Михаил Фишман вместе с журналистами телеканала подводит итоги минувшей недели.
Поток со спутника без перекодировки
Тип релиза: DVB
Контейнер: MPG
Видео: MPEG-2 720x576 2 758 Кбит/сек 16:9 25.000 fps
Аудио: MP2 2 channels 48.0 KHz 192 Кбит/сек
General
Complete name : G:Fishman_28.08.15.mpg
Format : MPEG-PS
File size : 1.20 GiB
Duration : 57mn 6s
Overall bit rate mode : Variable
Overall bit rate : 3 010 Kbps
Video
ID : 224 (0xE0)
Format : MPEG Video
Format version : Version 2
Format profile : Main@Main
Format settings, BVOP : Yes
Format settings, Matrix : Custom
Format settings, GOP : M=3, N=42
Format settings, picture st : Frame
Duration : 57mn 6s
Bit rate mode : Variable
Bit rate : 2 758 Kbps
Maximum bit rate : 15.0 Mbps
Width : 720 pixels
Height : 576 pixels
Display aspect ratio : 16:9
Frame rate : 25.000 fps
Standard : PAL
Color space : YUV
Chroma subsampling : 4:2:0
Bit depth : 8 bits
Scan type : Interlaced
Scan order : Top Field First
Compression mode : Lossy
Bits/(Pixel*Frame) : 0.266
Stream size : 1.10 GiB (92%)
Audio
ID : 192 (0xC0)
Format : MPEG Audio
Format version : Version 1
Format profile : Layer 2
Duration : 57mn 6s
Bit rate mode : Constant
Bit rate : 192 Kbps
Channel(s) : 2 channels
Sampling rate : 48.0 KHz
Compression mode : Lossy
Delay relative to video : -164ms
Stream size : 78.4 MiB (6%)



   Похожие торренты   Торрент   Размер 
В этой теме нет новых непрочитанных сообщений. Это вечернее солнце / That Evening Sun (2009) | P

88 | 8

1.45 ГБ

В этой теме нет новых непрочитанных сообщений. Вечернее платье / La robe du soir (2009) DVDRip | L1

121 | 24

1.58 ГБ

В этой теме нет новых непрочитанных сообщений. Вечернее платье / Tenue de soiree (1986) DVDRip от SergV

20 | 2

1.38 ГБ

В этой теме нет новых непрочитанных сообщений. Теплое вечернее небесное свечение. Видеокурс (2017) HDRip

11 | 1

3.53 ГБ

В этой теме нет новых непрочитанных сообщений. Билл Хикс - Одно вечернее шоу / Bill Hicks - One Night Stand (1991) DVDRip от Brazzass

1 | 2

415.23 МБ

В этой теме нет новых непрочитанных сообщений. Кто ты - Школа 2015, 1 сезон 1-16 серии из 16 / Who Are You - School 2015 / Hooayoo - Hakgyo 2015 [GREEN TEA] (Пэк Сан Хун) [2015, мелодрама, комедия, детектив, HDTVRip, L1]

25 | 8

11.02 ГБ

В этой теме нет новых непрочитанных сообщений. Легкая атлетика. Бриллиантовая Лига 2015 / Diamond League 2015. Этап 01-08. [NRK] (2015) HDTVRip 720р

2 | 1

22.14 ГБ




Вы не можете начинать темы
Вы не можете отвечать на сообщения
Вы не можете редактировать свои сообщения
Вы не можете удалять свои сообщения
Вы не можете добавлять вложения

Перейти:  
Для Мосгорсуда, Роскомнадзора и рекламодателей: mosgorsud-torrent[собачка]yandex.ru
 Вход
ppkBB3cker v.2 © 2008-2014 @ PPK
[ Time : 1.302s | 15 Queries | GZIP : Off ]

cron