img image001 image001 image001 image001 image001 image001 image001 image001 image001 image001 image001 image001 image001 image001 image001

Planets Sun Sun Sun
Статистика раздачи
Автор: Nickolas3434 | Размер: 3.81 ГБ | Добавлен: 01 сен 2015
Раздают: 7    Качают: 2
Скачать торрент
Скачать торрент
Описание торрента

СообщениеДобавлено: 01 сен 2015 

Ламберт и Стэмп / Lambert & Stamp


#77
Год выпуска: 2014
Страна: США
Студия: Motocinema | Sony Classics
Жанр: Документальный
Продолжительность: 1:57:39
Перевод: Субтитры (Русские, Украинские)
Режиссер: Джеймс Д. Купер / James D. Cooper

Описание: Документальный фильм об известной британской рок-группе The Who, годом основания которой считается 1964-й. Именно тогда начинающие режиссеры Кит Ламберт и Крис Стэмп решили, что станут продюсерами никому не известного андеграундного коллектива и снимут кино — о нем и в целом об атмосфере, в которой жила лондонская молодежь послевоенного времени. Но вышло иначе: The Who стали культовой группой, а Ламберт и Стэмп - ее постоянными менеджерами.


Автор рипа: lrn
Сэмпл: sendfile

Тип релиза: BDRip 720p
Контейнер: MKV
Формат субтитров: softsub (SRT)
Видео: 1280x688 (1.85:1), 23,976 fps, H264, ~4000 kbps avg, ~0.189 bit/pixel
Аудио: 48 kHz, AC3 Dolby Digital, 3/2 (L,C,R,l,r) + LFE ch, ~640.00 kbps avg | Оригинал

General
Unique ID : 221823451430844738738477190519867307611 (0xA6E1A48B1EA8EF2A93BB1FF57667F65B)
Complete name : E:uTorrent.TempTempLambert.&.Stamp.2014.BDRip.720p.x264-RUS-UKR-ENG-lrn.mkv
Format : Matroska
Format version : Version 4 / Version 2
File size : 3.81 GiB
Duration : 1h 57mn
Overall bit rate : 4 642 Kbps
Movie name : Lambert.&.Stamp.2014.BDRip.720p.x264-RUS-UKR-ENG-lrn
Encoded date : UTC 2010-02-22 21:41:31
Writing application : mkvmerge v5.9.0 ('On The Loose') built on Dec 9 2012 15:37:01
Writing library : libebml v1.3.0 + libmatroska v1.4.0
DURATION : 01:57:39.094000000
NUMBER_OF_FRAMES : 169249
NUMBER_OF_BYTES : 3529399414
_STATISTICS_WRITING_APP : mkvmerge v7.7.0 ('Six Voices') 32bit built on Feb 28 2015 23:23:00
_STATISTICS_WRITING_DATE_UT : 2015-08-29 21:13:27
_STATISTICS_TAGS : BPS DURATION NUMBER_OF_FRAMES NUMBER_OF_BYTES
Video
ID : 1
Format : AVC
Format/Info : Advanced Video Codec
Format profile : High@L4.1
Format settings, CABAC : Yes
Format settings, ReFrames : 8 frames
Codec ID : V_MPEG4/ISO/AVC
Duration : 1h 57mn
Bit rate : 4 000 Kbps
Width : 1 280 pixels
Height : 688 pixels
Display aspect ratio : 1.85:1
Frame rate mode : Constant
Frame rate : 23.976 fps
Color space : YUV
Chroma subsampling : 4:2:0
Bit depth : 8 bits
Scan type : Progressive
Bits/(Pixel*Frame) : 0.189
Stream size : 3.21 GiB (84%)
Writing library : x264 core 146 r2538 121396c
Encoding settings : cabac=1 / ref=8 / deblock=1:-3:-3 / analyse=0x3:0x133 / me=umh / subme=9 / psy=1 / psy_rd=1.00:0.00 / mixed_ref=1 / me_range=32 / chroma_me=1 / trellis=2 / 8x8dct=1 / cqm=0 / deadzone=21,11 / fast_pskip=1 / chroma_qp_offset=-2 / threads=12 / lookahead_threads=2 / sliced_threads=0 / nr=0 / decimate=1 / interlaced=0 / bluray_compat=0 / constrained_intra=0 / bframes=8 / b_pyramid=2 / b_adapt=2 / b_bias=0 / direct=3 / weightb=1 / open_gop=0 / weightp=2 / keyint=240 / keyint_min=23 / scenecut=40 / intra_refresh=0 / rc_lookahead=50 / rc=2pass / mbtree=1 / bitrate=4000 / ratetol=1.0 / qcomp=0.60 / qpmin=0 / qpmax=69 / qpstep=4 / cplxblur=20.0 / qblur=0.5 / vbv_maxrate=62500 / vbv_bufsize=78125 / nal_hrd=none / filler=0 / ip_ratio=1.40 / aq=1:1.00
Default : Yes
Forced : No
Audio
ID : 2
Format : AC-3
Format/Info : Audio Coding 3
Mode extension : CM (complete main)
Format settings, Endianness : Big
Codec ID : A_AC3
Duration : 1h 57mn
Bit rate mode : Constant
Bit rate : 640 Kbps
Channel(s) : 6 channels
Channel positions : Front: L C R, Side: L R, LFE
Sampling rate : 48.0 KHz
Compression mode : Lossy
Stream size : 539 MiB (14%)
Language : English
Default : Yes
Forced : No
Text #1
ID : 3
Format : UTF-8
Codec ID : S_TEXT/UTF8
Codec ID/Info : UTF-8 Plain Text
Language : Russian
Default : Yes
Forced : Yes
Text #2
ID : 4
Format : UTF-8
Codec ID : S_TEXT/UTF8
Codec ID/Info : UTF-8 Plain Text
Language : Ukrainian
Default : No
Forced : No
Text #3
ID : 5
Format : UTF-8
Codec ID : S_TEXT/UTF8
Codec ID/Info : UTF-8 Plain Text
Language : English
Default : No
Forced : No
raw [info]: 1280x688p 1:1 @ 24000/1001 fps (cfr)
x264 [info]: using SAR=1/1
x264 [info]: using cpu capabilities: MMX2 SSE2Fast SSSE3 SSE4.2 AVX
x264 [info]: profile High, level 4.1
x264 [info]: frame I:1137 Avg QP:19.87 size: 77297
x264 [info]: frame P:38027 Avg QP:23.44 size: 29782
x264 [info]: frame B:130085 Avg QP:24.84 size: 17750
x264 [info]: consecutive B-frames: 2.9% 3.8% 7.2% 22.2% 14.7% 29.3% 7.9% 9.4% 2.5%
x264 [info]: mb I I16..4: 10.4% 79.4% 10.2%
x264 [info]: mb P I16..4: 1.8% 16.4% 0.9% P16..4: 39.4% 15.4% 10.4% 0.1% 0.0% skip:15.6%
x264 [info]: mb B I16..4: 0.1% 2.3% 0.1% B16..8: 44.0% 12.4% 3.1% direct: 7.7% skip:30.4% L0:48.5% L1:47.4% BI: 4.1%
x264 [info]: 8x8 transform intra:87.5% inter:72.1%
x264 [info]: direct mvs spatial:98.0% temporal:2.0%
x264 [info]: coded y,uvDC,uvAC intra: 83.9% 18.2% 7.2% inter: 36.1% 9.1% 0.6%
x264 [info]: i16 v,h,dc,p: 42% 19% 10% 29%
x264 [info]: i8 v,h,dc,ddl,ddr,vr,hd,vl,hu: 8% 6% 5% 11% 16% 15% 15% 12% 12%
x264 [info]: i4 v,h,dc,ddl,ddr,vr,hd,vl,hu: 8% 5% 3% 11% 17% 16% 15% 12% 13%
x264 [info]: i8c dc,h,v,p: 81% 9% 5% 5%
x264 [info]: Weighted P-Frames: Y:7.7% UV:1.6%
x264 [info]: ref P L0: 38.6% 9.5% 18.6% 9.3% 7.7% 6.2% 5.7% 3.7% 0.7% 0.0%
x264 [info]: ref B L0: 60.8% 15.6% 10.1% 5.6% 4.4% 2.5% 1.0%
x264 [info]: ref B L1: 88.7% 11.3%
x264 [info]: kb/s:3999.83
encoded 169249 frames, 11.71 fps, 3999.83 kb/s



   Похожие торренты   Торрент   Размер 
В этой теме нет новых непрочитанных сообщений. Photo Stamp Remover 4.2 (2011) PC

128 | 5

21.34 МБ

В этой теме нет новых непрочитанных сообщений. Photo Stamp Remover 5.3 (2013) РС | RePack by KpoJIuK

196 | 11

9.57 МБ

В этой теме нет новых непрочитанных сообщений. Miranda Lambert - Дискография (2014) MP3

34 | 21

845.66 МБ

В этой теме нет новых непрочитанных сообщений. Miranda Lambert - Discography (2001-2014) MP3

77 | 22

698.23 МБ

В этой теме нет новых непрочитанных сообщений. Adam Lambert - Glam Nation Live (2011) BDRip от MediaClub

8 | 5

1.09 ГБ

В этой теме нет новых непрочитанных сообщений. Adam Lambert - Beg For Mercy (2011) MP3

2 | 3

78.05 МБ

В этой теме нет новых непрочитанных сообщений. Adam Lambert - Better Than I Know Myself [Клип] (2012) HDTVRip

14 | 2

51.24 МБ




Вы не можете начинать темы
Вы не можете отвечать на сообщения
Вы не можете редактировать свои сообщения
Вы не можете удалять свои сообщения
Вы не можете добавлять вложения

Перейти:  
Для Мосгорсуда, Роскомнадзора и рекламодателей: mosgorsud-torrent[собачка]yandex.ru
 Вход
ppkBB3cker v.2 © 2008-2014 @ PPK
[ Time : 0.053s | 15 Queries | GZIP : On ]

Торрент трекер RUTOR.IN, Не можете зайти на rutor.org? Какой новый адрес рутор? Какое зеркало рутор? Не работает rutor.org и зеркала? Тогда наш торрент специально для вас. Rutor.in неофициальное зеркало rutor. В случае если у Вас заблокирован rutor или вдруг Вы не можете на него зайти, то Вы без труда сможете скачать бесплатно и без рекламы последние новинки кино, игр, сериалов и прочего у нас, на Rutor.in. Не нужно использовать прокси, чтобы зайти на рутор, достаточно воспользоваться нашим ресурсом. Все новые фильмы, игры, сериалы, книги и музыка за 2013 и 2014 годы через торрент бесплатно. Скачивайте фильмы в хорошем качестве, игры для пк, xbox, playstation без регистрации. У нас вы найдете новые Зарубежные сериалы и Русские сериалы 2013, 2014, 2015 годов. Оставайтесь с нами, качайте любимые фильмы, игры, сериалы, книги и музыку.