img image001 image001 image001 image001 image001 image001 image001 image001 image001 image001 image001 image001 image001 image001 image001

Planets Sun Sun Sun
Статистика раздачи
Автор: Nickolas3434 | Размер: 864.07 МБ | Добавлен: 02 сен 2015
Раздают: 52    Качают: 17
Скачать торрент
Скачать торрент
Описание торрента

СообщениеДобавлено: 02 сен 2015 


Информация о фильме
Название: Медведев.Георгий Толорая.Северная Корея
Год выхода: 01.09.2015
Жанр: Интервью
Участвуют: Сергей Медведев,Георгий Толорая
О фильме:
В гостях у Сергея Медведева профессор МГИМО Георгий Толорая. Поговорили об истории возникновения Северной Кореи,о нынешнем руководителе страны,почему он любит лично приводить смертные приговоры в исполнение,чего нам ожидать от этой страны.
Страна: Россия
Студия: Телеканал "Дождь"
Продолжительность: 00:40:07
Доп. информация: Поток со спутника без перекодировки
качество: DVB
формат: MPG
Видео: MPEG-2 720x576 2 759 Кбит/сек 16:9 25.000 fps
Аудио: MP2 2 channels 48.0 KHz 192 Кбит/сек
General
Complete name : F:Medvedev_01.09.15.mpg
Format : MPEG-PS
File size : 864 MiB
Duration : 40mn 7s
Overall bit rate mode : Variable
Overall bit rate : 3 011 Kbps
Video
ID : 224 (0xE0)
Format : MPEG Video
Format version : Version 2
Format profile : Main@Main
Format settings, BVOP : Yes
Format settings, Matrix : Custom
Format settings, GOP : M=3, N=42
Duration : 40mn 7s
Bit rate mode : Variable
Bit rate : 2 759 Kbps
Maximum bit rate : 15.0 Mbps
Width : 720 pixels
Height : 576 pixels
Display aspect ratio : 16:9
Frame rate : 25.000 fps
Standard : PAL
Color space : YUV
Chroma subsampling : 4:2:0
Bit depth : 8 bits
Scan type : Interlaced
Scan order : Top Field First
Compression mode : Lossy
Bits/(Pixel*Frame) : 0.266
Stream size : 792 MiB (92%)
Audio
ID : 192 (0xC0)
Format : MPEG Audio
Format version : Version 1
Format profile : Layer 2
Duration : 40mn 7s
Bit rate mode : Constant
Bit rate : 192 Kbps
Channel(s) : 2 channels
Sampling rate : 48.0 KHz
Compression mode : Lossy
Delay relative to video : -140ms
Stream size : 55.1 MiB (6%)




   Похожие торренты   Торрент   Размер 
В этой теме нет новых непрочитанных сообщений. Медведев - Григорий Явлинский [24.11] (2015) HDTVRip 720p

63 | 0

474.47 МБ

В этой теме нет новых непрочитанных сообщений. Медведев - Алексей Малашенко. Ситуация в Сирии [08.09] (2015) HDTVRip

57 | 1

328.23 МБ

В этой теме нет новых непрочитанных сообщений. Медведев - Владислав Белов. 25 лет объединения Германии [03.10] (2015) HDTVRip

20 | 6

615.56 МБ

В этой теме нет новых непрочитанных сообщений. Медведев - Владимир Чупров. Освоение Арктики [29.09] (2015) HDTVRip

19 | 9

469.84 МБ

В этой теме нет новых непрочитанных сообщений. Медведев - Алексей Зубов [26.05.2015] (2015) TVRip-AVC

33 | 5

392.1 МБ

В этой теме нет новых непрочитанных сообщений. Медведев - Олег Будницкий.150 лет терроризму в России. [17.11] (2015) HDTVRip 720p

29 | 8

506.06 МБ

В этой теме нет новых непрочитанных сообщений. Медведев - Олег Хлевнюк. Роль Сталина в истории России [15.12] (2015) HDTVRip 720p

22 | 3

500.43 МБ




Вы не можете начинать темы
Вы не можете отвечать на сообщения
Вы не можете редактировать свои сообщения
Вы не можете удалять свои сообщения
Вы не можете добавлять вложения

Перейти:  
Для Мосгорсуда, Роскомнадзора и рекламодателей: mosgorsud-torrent[собачка]yandex.ru
 Вход
ppkBB3cker v.2 © 2008-2014 @ PPK
[ Time : 0.644s | 14 Queries | GZIP : On ]

Торрент трекер RUTOR.IN, Не можете зайти на rutor.org? Какой новый адрес рутор? Какое зеркало рутор? Не работает rutor.org и зеркала? Тогда наш торрент специально для вас. Rutor.in неофициальное зеркало rutor. В случае если у Вас заблокирован rutor или вдруг Вы не можете на него зайти, то Вы без труда сможете скачать бесплатно и без рекламы последние новинки кино, игр, сериалов и прочего у нас, на Rutor.in. Не нужно использовать прокси, чтобы зайти на рутор, достаточно воспользоваться нашим ресурсом. Все новые фильмы, игры, сериалы, книги и музыка за 2013 и 2014 годы через торрент бесплатно. Скачивайте фильмы в хорошем качестве, игры для пк, xbox, playstation без регистрации. У нас вы найдете новые Зарубежные сериалы и Русские сериалы 2013, 2014, 2015 годов. Оставайтесь с нами, качайте любимые фильмы, игры, сериалы, книги и музыку.