img image001 image001 image001 image001 image001 image001 image001 image001 image001 image001 image001 image001 image001 image001 image001

Planets Sun Sun Sun
Статистика раздачи
Автор: Nickolas3434 | Размер: 1.08 ГБ | Добавлен: 02 сен 2015
Раздают: 32    Качают: 35
Скачать торрент
Скачать торрент
Описание торрента

СообщениеДобавлено: 02 сен 2015 


Дата/Год выпуска: 01.09.2015
Страна: Россия
Жанр: Информационная программа, ток-шоу
Продолжительность: 00:51:24
Перевод: Не требуется
Телеканал: Дождь
Описание: Итоговый выпуск новостей телеканала "Дождь".Ведущая Мария Макеева.
Доп. информация: Поток со спутника без перекодировки,отсутствуют последние 2 минуты передачи.
Сэмпл: http://sendfile.su/1150037
качество: DVB
формат: MPG
Видео: MPEG-2 720x576 2 759 Кбит/сек 16:9 25.000 fps
Аудио: MP2 2 channels 48.0 KHz 192 Кбит/сек
General
Complete name : F:Dozhd_news_01.09.15.mpg
Format : MPEG-PS
File size : 1.08 GiB
Duration : 51mn 25s
Overall bit rate mode : Variable
Overall bit rate : 3 010 Kbps
Video
ID : 224 (0xE0)
Format : MPEG Video
Format version : Version 2
Format profile : Main@Main
Format settings, BVOP : Yes
Format settings, Matrix : Custom
Format settings, GOP : Variable
Duration : 51mn 24s
Bit rate mode : Variable
Bit rate : 2 758 Kbps
Maximum bit rate : 15.0 Mbps
Width : 720 pixels
Height : 576 pixels
Display aspect ratio : 16:9
Frame rate : 25.000 fps
Standard : PAL
Color space : YUV
Chroma subsampling : 4:2:0
Bit depth : 8 bits
Scan type : Interlaced
Scan order : Top Field First
Compression mode : Lossy
Bits/(Pixel*Frame) : 0.266
Stream size : 1 014 MiB (92%)
Audio
ID : 192 (0xC0)
Format : MPEG Audio
Format version : Version 1
Format profile : Layer 2
Duration : 51mn 25s
Bit rate mode : Constant
Bit rate : 192 Kbps
Channel(s) : 2 channels
Sampling rate : 48.0 KHz
Compression mode : Lossy
Delay relative to video : -180ms
Stream size : 70.6 MiB (6%)




   Похожие торренты   Торрент   Размер 
В этой теме нет новых непрочитанных сообщений. Здесь и сейчас. Телеканал Дождь [08.08] (2015) DVB

30 | 2

1.28 ГБ

В этой теме нет новых непрочитанных сообщений. Здесь и сейчас. Телеканал Дождь [03.09] (2015) DVB

106 | 40

1.42 ГБ

В этой теме нет новых непрочитанных сообщений. Здесь и сейчас. Телеканал Дождь [02.09] (2015) DVB

38 | 3

1.26 ГБ

В этой теме нет новых непрочитанных сообщений. Здесь и сейчас. Телеканал Дождь [10.08] (2015) DVB

10 | 1

1.28 ГБ

В этой теме нет новых непрочитанных сообщений. Здесь и сейчас. (телеканал Дождь) [29.08] (2015) DVB

28 | 2

761.13 МБ

В этой теме нет новых непрочитанных сообщений. Здесь и сейчас. Телеканал Дождь [07.08] (2015) DVB

16 | 2

1.28 ГБ

В этой теме нет новых непрочитанных сообщений. Здесь и сейчас. Телеканал Дождь [09.08] (2015) DVB

13 | 1

1.28 ГБ




Вы не можете начинать темы
Вы не можете отвечать на сообщения
Вы не можете редактировать свои сообщения
Вы не можете удалять свои сообщения
Вы не можете добавлять вложения

Перейти:  
Для Мосгорсуда, Роскомнадзора и рекламодателей: mosgorsud-torrent[собачка]yandex.ru
 Вход
ppkBB3cker v.2 © 2008-2014 @ PPK
[ Time : 0.052s | 15 Queries | GZIP : Off ]

cron