img image001 image001 image001 image001 image001 image001 image001 image001 image001 image001 image001 image001 image001 image001 image001

Planets Sun Sun Sun
Статистика раздачи
Автор: Nickolas3434 | Размер: 1.31 ГБ | Добавлен: 04 сен 2015
Раздают: 9    Качают: 4
Скачать торрент
Скачать торрент
Описание торрента

СообщениеДобавлено: 04 сен 2015 


Год выпуска: 2015
Страна: Россия
Студия: Телеканал "Дождь"
Жанр: Ток-Шоу
Продолжительность: 01:00:02
Перевод: Не требуется
Описание:На вопросы жуналистов "Дождя" отвечает скульптор Салават Щербаков.
Тип релиза: DVB
Контейнер: MPG
Видео: MPEG-2 720x576 2 759 Кбит/сек 16:9 25.000 fps
Аудио: MP2 2 channels 48.0 KHz 192 Кбит/сек
Доп. информация: Поток со спутника без перекодировки.
HDN_25.08.15.mpg
Format : MPEG-PS
File size : 1.31 GiB
Duration : 1h 2mn
Overall bit rate mode : Variable
Overall bit rate : 3 011 Kbps
Video
ID : 224 (0xE0)
Format : MPEG Video
Format version : Version 2
Format profile : Main@Main
Format settings, BVOP : Yes
Format settings, Matrix : Custom
Format settings, GOP : Variable
Duration : 1h 2mn
Bit rate mode : Variable
Bit rate : 2 759 Kbps
Maximum bit rate : 15.0 Mbps
Width : 720 pixels
Height : 576 pixels
Display aspect ratio : 16:9
Frame rate : 25.000 fps
Standard : PAL
Color space : YUV
Chroma subsampling : 4:2:0
Bit depth : 8 bits
Scan type : Interlaced
Scan order : Top Field First
Compression mode : Lossy
Bits/(Pixel*Frame) : 0.266
Stream size : 1.20 GiB (92%)
Audio
ID : 192 (0xC0)
Format : MPEG Audio
Format version : Version 1
Format profile : Layer 2
Duration : 1h 2mn
Bit rate mode : Constant
Bit rate : 192 Kbps
Channel(s) : 2 channels
Sampling rate : 48.0 KHz
Compression mode : Lossy
Stream size : 85.6 MiB (6%)



   Похожие торренты   Торрент   Размер 
В этой теме нет новых непрочитанных сообщений. Hard day's night - Карен Шахназаров [15.04] (2015) WEBRip

73 | 4

440.91 МБ

В этой теме нет новых непрочитанных сообщений. Hard Day’s Night. Наталья Касперская [13.10] (2015) HDTVRip 720p

16 | 1

579.13 МБ

В этой теме нет новых непрочитанных сообщений. Hard Day’s Night. Людмила Улицкая [17.11] (2015) HDTVRip 720p

92 | 3

650.81 МБ

В этой теме нет новых непрочитанных сообщений. Hard Day’s Night. Александр Любимов [20.07] (2015) HDTVRip 720p

76 | 2

2.04 ГБ

В этой теме нет новых непрочитанных сообщений. Hard Day’s Night. Михаил Ходорковский [28.07] (2015) HDTVRip 720p

347 | 63

1.29 ГБ

В этой теме нет новых непрочитанных сообщений. Вечер трудного дня / Hard Day's Night. Павел Лунгин [эфир от 12.03] (2015) WEBRip 720p

16 | 2

684.06 МБ

В этой теме нет новых непрочитанных сообщений. Hard Day’s Night. Вадим Покровский. Павел Лобков. Как сказать человеку, что у него ВИЧ [01.12] (2015) HDTVRip 720p

53 | 15

575.82 МБ




Вы не можете начинать темы
Вы не можете отвечать на сообщения
Вы не можете редактировать свои сообщения
Вы не можете удалять свои сообщения
Вы не можете добавлять вложения

Перейти:  
Для Мосгорсуда, Роскомнадзора и рекламодателей: mosgorsud-torrent[собачка]yandex.ru
 Вход
ppkBB3cker v.2 © 2008-2014 @ PPK
[ Time : 6.781s | 14 Queries | GZIP : On ]

Торрент трекер RUTOR.IN, Не можете зайти на rutor.org? Какой новый адрес рутор? Какое зеркало рутор? Не работает rutor.org и зеркала? Тогда наш торрент специально для вас. Rutor.in неофициальное зеркало rutor. В случае если у Вас заблокирован rutor или вдруг Вы не можете на него зайти, то Вы без труда сможете скачать бесплатно и без рекламы последние новинки кино, игр, сериалов и прочего у нас, на Rutor.in. Не нужно использовать прокси, чтобы зайти на рутор, достаточно воспользоваться нашим ресурсом. Все новые фильмы, игры, сериалы, книги и музыка за 2013 и 2014 годы через торрент бесплатно. Скачивайте фильмы в хорошем качестве, игры для пк, xbox, playstation без регистрации. У нас вы найдете новые Зарубежные сериалы и Русские сериалы 2013, 2014, 2015 годов. Оставайтесь с нами, качайте любимые фильмы, игры, сериалы, книги и музыку.