img image001 image001 image001 image001 image001 image001 image001 image001 image001 image001 image001 image001 image001 image001 image001

Planets Sun Sun Sun
Статистика раздачи
Автор: Nickolas3434 | Размер: 1.01 ГБ | Добавлен: 04 сен 2015
Раздают: 56    Качают: 10
Скачать торрент
Скачать торрент
Описание торрента

СообщениеДобавлено: 04 сен 2015 


Год выпуска: 2015
Страна: Россия
Студия: Телеканал "Дождь"
Жанр: Интервью
Продолжительность: 00:48:14
Перевод: Не требуется
Описание: В гостях у генерального директора телеканала "Дождь" Натальи Синдеевой экономический обозреватель,генеральный директор медиахолдинга «Румедиа» Михаил Бергер.
Доп. информация: Поток со спутника без перекодировки
качество: DVB
формат: MPG
Видео: MPEG-2 720x576 2 759 Кбит/сек 16:9 25.000 fps
Аудио: MP2 2 channels 48.0 KHz 192 Кбит/сек
Sindeeva_29.08.15.mpg
Format : MPEG-PS
File size : 1.01 GiB
Duration : 48mn 14s
Overall bit rate mode : Variable
Overall bit rate : 3 011 Kbps
Video
ID : 224 (0xE0)
Format : MPEG Video
Format version : Version 2
Format profile : Main@Main
Format settings, BVOP : Yes
Format settings, Matrix : Custom
Format settings, GOP : Variable
Duration : 48mn 14s
Bit rate mode : Variable
Bit rate : 2 759 Kbps
Maximum bit rate : 15.0 Mbps
Width : 720 pixels
Height : 576 pixels
Display aspect ratio : 16:9
Frame rate : 25.000 fps
Standard : PAL
Color space : YUV
Chroma subsampling : 4:2:0
Bit depth : 8 bits
Scan type : Interlaced
Scan order : Top Field First
Compression mode : Lossy
Bits/(Pixel*Frame) : 0.266
Stream size : 952 MiB (92%)
Audio
ID : 192 (0xC0)
Format : MPEG Audio
Format version : Version 1
Format profile : Layer 2
Duration : 48mn 14s
Bit rate mode : Constant
Bit rate : 192 Kbps
Channel(s) : 2 channels
Sampling rate : 48.0 KHz
Compression mode : Lossy
Delay relative to video : 8ms
Stream size : 66.3 MiB (6%)




   Похожие торренты   Торрент   Размер 
В этой теме нет новых непрочитанных сообщений. Синдеева. Михаил Ефремов [10.10] (2015) HDTVRip 720p

50 | 1

559.6 МБ

В этой теме нет новых непрочитанных сообщений. Синдеева. Чулпан Хаматова [28-03] (2015) TVRip

44 | 2

424.33 МБ

В этой теме нет новых непрочитанных сообщений. Синдеева. Алексей Венедиктов [11.07] (2015) HDTVRip 720p

69 | 31

435.64 МБ

В этой теме нет новых непрочитанных сообщений. Синдеева. Анатолий Лысенко [эфир от 08.02] (2015) WEBRip

9 | 2

856.42 МБ

В этой теме нет новых непрочитанных сообщений. Собчак живьём. Наталья Синдеева [27.04] (2015) TVRip

75 | 21

1.06 ГБ

В этой теме нет новых непрочитанных сообщений. Синдеева. Дмитрий Быков [01.08] (2015) HDTVRip 720p

233 | 35

2.01 ГБ

В этой теме нет новых непрочитанных сообщений. Синдеева. Светлана Сорокина [эфир от 25.01] (2015) WEBRip

36 | 6

716.12 МБ




Вы не можете начинать темы
Вы не можете отвечать на сообщения
Вы не можете редактировать свои сообщения
Вы не можете удалять свои сообщения
Вы не можете добавлять вложения

Перейти:  
Для Мосгорсуда, Роскомнадзора и рекламодателей: mosgorsud-torrent[собачка]yandex.ru
 Вход
ppkBB3cker v.2 © 2008-2014 @ PPK
[ Time : 0.519s | 16 Queries | GZIP : Off ]

Торрент трекер RUTOR.IN, Не можете зайти на rutor.org? Какой новый адрес рутор? Какое зеркало рутор? Не работает rutor.org и зеркала? Тогда наш торрент специально для вас. Rutor.in неофициальное зеркало rutor. В случае если у Вас заблокирован rutor или вдруг Вы не можете на него зайти, то Вы без труда сможете скачать бесплатно и без рекламы последние новинки кино, игр, сериалов и прочего у нас, на Rutor.in. Не нужно использовать прокси, чтобы зайти на рутор, достаточно воспользоваться нашим ресурсом. Все новые фильмы, игры, сериалы, книги и музыка за 2013 и 2014 годы через торрент бесплатно. Скачивайте фильмы в хорошем качестве, игры для пк, xbox, playstation без регистрации. У нас вы найдете новые Зарубежные сериалы и Русские сериалы 2013, 2014, 2015 годов. Оставайтесь с нами, качайте любимые фильмы, игры, сериалы, книги и музыку.