img image001 image001 image001 image001 image001 image001 image001 image001 image001 image001 image001 image001 image001 image001 image001

Planets Sun Sun Sun
Статистика раздачи
Автор: Nickolas3434 | Размер: 1.42 ГБ | Добавлен: 04 сен 2015
Раздают: 106    Качают: 40
Скачать торрент
Скачать торрент
Описание торрента

СообщениеДобавлено: 04 сен 2015 


Дата/Год выпуска: 03.09.2015
Страна: Россия
Жанр: Информационная программа, ток-шоу
Продолжительность: 01:04:30
Перевод: Не требуется
Телеканал: Дождь
Описание: Итоговый выпуск новостей телеканала "Дождь".Ведущий Павел Лобков.
качество: DVB
формат: MPG
Видео: MPEG-2 720x576 2 892 Кбит/сек 16:9 25.000 fps
Аудио: MP2 2 channels 48.0 KHz 192 Кбит/сек
General
Complete name : F:Dozhd_news_03.09.15.mpg
Format : MPEG-PS
File size : 1.42 GiB
Duration : 1h 4mn
Overall bit rate mode : Variable
Overall bit rate : 3 147 Kbps
Video
ID : 224 (0xE0)
Format : MPEG Video
Format version : Version 2
Format profile : Main@Main
Format settings, BVOP : Yes
Format settings, Matrix : Default
Format settings, GOP : Variable
Duration : 1h 4mn
Bit rate mode : Variable
Bit rate : 2 892 Kbps
Maximum bit rate : 9 500 Kbps
Width : 720 pixels
Height : 576 pixels
Display aspect ratio : 16:9
Frame rate : 25.000 fps
Standard : PAL
Color space : YUV
Chroma subsampling : 4:2:0
Bit depth : 8 bits
Scan type : Interlaced
Scan order : Bottom Field First
Compression mode : Lossy
Bits/(Pixel*Frame) : 0.279
Time code of first frame : 00:00:00:00
Time code source : Group of pictures header
Stream size : 1.30 GiB (92%)
Color primaries : BT.601 NTSC
Transfer characteristics : BT.601
Matrix coefficients : BT.601
Audio
ID : 192 (0xC0)
Format : MPEG Audio
Format version : Version 1
Format profile : Layer 2
Duration : 1h 4mn
Bit rate mode : Constant
Bit rate : 192 Kbps
Channel(s) : 2 channels
Sampling rate : 48.0 KHz
Compression mode : Lossy
Stream size : 88.6 MiB (6%)




   Похожие торренты   Торрент   Размер 
В этой теме нет новых непрочитанных сообщений. Здесь и сейчас. Телеканал Дождь [08.08] (2015) DVB

30 | 2

1.28 ГБ

В этой теме нет новых непрочитанных сообщений. Здесь и сейчас. (телеканал Дождь) [29.08] (2015) DVB

37 | 5

761.13 МБ

В этой теме нет новых непрочитанных сообщений. Здесь и сейчас. Телеканал Дождь [01.09] (2015) DVB

32 | 35

1.08 ГБ

В этой теме нет новых непрочитанных сообщений. Здесь и сейчас. Телеканал Дождь [02.09] (2015) DVB

65 | 8

1.26 ГБ

В этой теме нет новых непрочитанных сообщений. Здесь и сейчас. Телеканал Дождь [07.08] (2015) DVB

16 | 2

1.28 ГБ

В этой теме нет новых непрочитанных сообщений. Здесь и сейчас. Телеканал Дождь [31.08] (2015) DVB

85 | 4

1.12 ГБ

В этой теме нет новых непрочитанных сообщений. Здесь и сейчас. Телеканал Дождь [09.08] (2015) DVB

13 | 1

1.28 ГБ




Вы не можете начинать темы
Вы не можете отвечать на сообщения
Вы не можете редактировать свои сообщения
Вы не можете удалять свои сообщения
Вы не можете добавлять вложения

Перейти:  
Для Мосгорсуда, Роскомнадзора и рекламодателей: mosgorsud-torrent[собачка]yandex.ru
 Вход
ppkBB3cker v.2 © 2008-2014 @ PPK
[ Time : 0.230s | 14 Queries | GZIP : Off ]

Торрент трекер RUTOR.IN, Не можете зайти на rutor.org? Какой новый адрес рутор? Какое зеркало рутор? Не работает rutor.org и зеркала? Тогда наш торрент специально для вас. Rutor.in неофициальное зеркало rutor. В случае если у Вас заблокирован rutor или вдруг Вы не можете на него зайти, то Вы без труда сможете скачать бесплатно и без рекламы последние новинки кино, игр, сериалов и прочего у нас, на Rutor.in. Не нужно использовать прокси, чтобы зайти на рутор, достаточно воспользоваться нашим ресурсом. Все новые фильмы, игры, сериалы, книги и музыка за 2013 и 2014 годы через торрент бесплатно. Скачивайте фильмы в хорошем качестве, игры для пк, xbox, playstation без регистрации. У нас вы найдете новые Зарубежные сериалы и Русские сериалы 2013, 2014, 2015 годов. Оставайтесь с нами, качайте любимые фильмы, игры, сериалы, книги и музыку.