img image001 image001 image001 image001 image001 image001 image001 image001 image001 image001 image001 image001 image001 image001 image001

Planets Sun Sun Sun
Статистика раздачи
Автор: Nickolas3434 | Размер: 382.57 МБ | Добавлен: 05 сен 2015
Раздают: 242    Качают: 43
Скачать торрент
Скачать торрент
Описание торрента

СообщениеДобавлено: 05 сен 2015 


Дата/Год выпуска: 04.09.2015
Страна: Великобритания
Жанр: Документальный фильм
Продолжительность: 00:17:45
Перевод: Не требуется,язык русский.
Телеканал: BBC
Описание: Фильм о легендарном музыканте и радиоведущем Севе Новгородцеве,который сегодня ушел на пенсию.
Доп. информация: Поток со спутника без перекодировки
качество: DVB
формат: MPG
Видео: MPEG-2 720x576 2 758 Кбит/сек 16:9 25.000 fps
Аудио: MP2 2 channels 48.0 KHz 192 Кбит/сек
Novgorodtsev.mpg
Format : MPEG-PS
File size : 383 MiB
Duration : 17mn 46s
Overall bit rate mode : Variable
Overall bit rate : 3 010 Kbps
Video
ID : 224 (0xE0)
Format : MPEG Video
Format version : Version 2
Format profile : Main@Main
Format settings, BVOP : Yes
Format settings, Matrix : Custom
Format settings, GOP : Variable
Format settings, picture st : Frame
Duration : 17mn 45s
Bit rate mode : Variable
Bit rate : 2 758 Kbps
Maximum bit rate : 15.0 Mbps
Width : 720 pixels
Height : 576 pixels
Display aspect ratio : 16:9
Frame rate : 25.000 fps
Standard : PAL
Color space : YUV
Chroma subsampling : 4:2:0
Bit depth : 8 bits
Scan type : Interlaced
Scan order : Top Field First
Compression mode : Lossy
Bits/(Pixel*Frame) : 0.266
Stream size : 351 MiB (92%)
Audio
ID : 192 (0xC0)
Format : MPEG Audio
Format version : Version 1
Format profile : Layer 2
Duration : 17mn 46s
Bit rate mode : Constant
Bit rate : 192 Kbps
Channel(s) : 2 channels
Sampling rate : 48.0 KHz
Compression mode : Lossy
Delay relative to video : -180ms
Stream size : 24.4 MiB (6%)




   Похожие торренты   Торрент   Размер 
В этой теме нет новых непрочитанных сообщений. Руля и Сева: Канитель по беспределу (2004) PC

5 | 2

583.09 МБ

В этой теме нет новых непрочитанных сообщений. Истории эры Сёва / TV Manga Shouwa Monogatari [01-13 из 13] (2011) HDTVRip 720p | L

11 | 14

3.77 ГБ

В этой теме нет новых непрочитанных сообщений. Истории эры Сёва / TV Manga Shouwa Monogatari [01-13 из 13] (2011) HDTVRip 720p | L

30 | 18

3.77 ГБ

В этой теме нет новых непрочитанных сообщений. Футбол. Чемпионат Англии 2015-16. 4-й тур. Челси (Лондон) - Кристал Пэлас (Лондон) [29.08] (2015) HDTVRip от runetzone

40 | 3

1.57 ГБ

В этой теме нет новых непрочитанных сообщений. Футбол. Чемпионат Англии 2015-16. 4-й тур. Челси (Лондон) - Кристал Пэлас (Лондон) [29.08] (2015) HDTV 1080i

36 | 3

9.18 ГБ

В этой теме нет новых непрочитанных сообщений. Футбол. Суперкубок Англии 2015. Арсенал (Лондон) - Челси (Лондон) [02.08] (2015) HDTV 1080i

59 | 17

8.27 ГБ

В этой теме нет новых непрочитанных сообщений. Футбол. Суперкубок Англии 2015. Арсенал (Лондон) – Челси (Лондон) [02.08] (2015) WEBRip

75 | 4

1.16 ГБ




Вы не можете начинать темы
Вы не можете отвечать на сообщения
Вы не можете редактировать свои сообщения
Вы не можете удалять свои сообщения
Вы не можете добавлять вложения

Перейти:  
Для Мосгорсуда, Роскомнадзора и рекламодателей: mosgorsud-torrent[собачка]yandex.ru
 Вход
ppkBB3cker v.2 © 2008-2014 @ PPK
[ Time : 0.045s | 14 Queries | GZIP : Off ]

Торрент трекер RUTOR.IN, Не можете зайти на rutor.org? Какой новый адрес рутор? Какое зеркало рутор? Не работает rutor.org и зеркала? Тогда наш торрент специально для вас. Rutor.in неофициальное зеркало rutor. В случае если у Вас заблокирован rutor или вдруг Вы не можете на него зайти, то Вы без труда сможете скачать бесплатно и без рекламы последние новинки кино, игр, сериалов и прочего у нас, на Rutor.in. Не нужно использовать прокси, чтобы зайти на рутор, достаточно воспользоваться нашим ресурсом. Все новые фильмы, игры, сериалы, книги и музыка за 2013 и 2014 годы через торрент бесплатно. Скачивайте фильмы в хорошем качестве, игры для пк, xbox, playstation без регистрации. У нас вы найдете новые Зарубежные сериалы и Русские сериалы 2013, 2014, 2015 годов. Оставайтесь с нами, качайте любимые фильмы, игры, сериалы, книги и музыку.