img image001 image001 image001 image001 image001 image001 image001 image001 image001 image001 image001 image001 image001 image001 image001

Planets Sun Sun Sun
Статистика раздачи
Автор: Nickolas3434 | Размер: 371.65 МБ | Добавлен: 11 сен 2015
Раздают: 44    Качают: 6
Скачать торрент
Скачать торрент
Описание торрента

СообщениеДобавлено: 11 сен 2015 


Год выпуска: 2015
Страна: Россия
Студия: Телеканал "Дождь"
Жанр: Интервью
Продолжительность: 00:35:57
Перевод: Не требуется
Описание: Интервью Константина Меладзе главному редактору журнала Forbes Life Юлии Таратуте.
Тип релиза: HDTVRip
Контейнер: AVI
Видео: DivX 720х400 16:9 1 307 Kbps 25.000 fps
Аудио: Мр3 128 Kbps 48.0 KHz 2 channels
Format : AVI
Format/Info : Audio Video Interleave
File size : 372 MiB
Duration : 35mn 57s
Overall bit rate : 1 445 Kbps
Video
ID : 0
Format : MPEG-4 Visual
Codec ID : DIV3
Codec ID/Hint : DivX 3 Low
Duration : 35mn 57s
Bit rate : 1 307 Kbps
Width : 720 pixels
Height : 400 pixels
Display aspect ratio : 16:9
Frame rate : 25.000 fps
Color space : YUV
Chroma subsampling : 4:2:0
Bit depth : 8 bits
Compression mode : Lossy
Bits/(Pixel*Frame) : 0.182
Stream size : 336 MiB (90%)
Audio
ID : 1
Format : MPEG Audio
Format version : Version 1
Format profile : Layer 3
Codec ID : 55
Codec ID/Hint : MP3
Duration : 35mn 57s
Source duration : 35mn 57s
Bit rate mode : Constant
Bit rate : 128 Kbps
Channel(s) : 1 channel
Sampling rate : 48.0 KHz
Compression mode : Lossy
Stream size : 32.9 MiB (9%)
Alignment : Aligned on interleaves
Interleave, duration : 40 ms (1.00 video frame)



   Похожие торренты   Торрент   Размер 
В этой теме нет новых непрочитанных сообщений. «Говорите» С Юлией Таратутой - Олег Дорман [06.11] (2015) HDTVRip 720p

12 | 9

479.18 МБ

В этой теме нет новых непрочитанных сообщений. «Говорите» С Юлией Таратутой - Юлий Гусман [30.10] (2015) HDTVRip 720p

14 | 1

459.59 МБ

В этой теме нет новых непрочитанных сообщений. «Говорите» С Юлией Таратутой - Никита Ефремов [18.12] (2015) HDTVRip 720p

26 | 0

424 МБ

В этой теме нет новых непрочитанных сообщений. «Говорите» С Юлией Таратутой - Ксения Кутепова [10.07] (2015) HDTVRip 720p

13 | 7

1.27 ГБ

В этой теме нет новых непрочитанных сообщений. «Говорите» С Юлией Таратутой - Виталий Манский [13.11] (2015) HDTVRip 720p

20 | 1

494.77 МБ

В этой теме нет новых непрочитанных сообщений. «Говорите» С Юлией Таратутой - Дима Билан [31.07] (2015) HDTVRip 720p

75 | 6

1.26 ГБ

В этой теме нет новых непрочитанных сообщений. «Говорите» С Юлией Таратутой. Дмитрий Муратов [24.04] (2015) TVRip

10 | 1

405.5 МБ




Вы не можете начинать темы
Вы не можете отвечать на сообщения
Вы не можете редактировать свои сообщения
Вы не можете удалять свои сообщения
Вы не можете добавлять вложения

Перейти:  
Для Мосгорсуда, Роскомнадзора и рекламодателей: mosgorsud-torrent[собачка]yandex.ru
 Вход
ppkBB3cker v.2 © 2008-2014 @ PPK
[ Time : 0.045s | 14 Queries | GZIP : Off ]

Торрент трекер RUTOR.IN, Не можете зайти на rutor.org? Какой новый адрес рутор? Какое зеркало рутор? Не работает rutor.org и зеркала? Тогда наш торрент специально для вас. Rutor.in неофициальное зеркало rutor. В случае если у Вас заблокирован rutor или вдруг Вы не можете на него зайти, то Вы без труда сможете скачать бесплатно и без рекламы последние новинки кино, игр, сериалов и прочего у нас, на Rutor.in. Не нужно использовать прокси, чтобы зайти на рутор, достаточно воспользоваться нашим ресурсом. Все новые фильмы, игры, сериалы, книги и музыка за 2013 и 2014 годы через торрент бесплатно. Скачивайте фильмы в хорошем качестве, игры для пк, xbox, playstation без регистрации. У нас вы найдете новые Зарубежные сериалы и Русские сериалы 2013, 2014, 2015 годов. Оставайтесь с нами, качайте любимые фильмы, игры, сериалы, книги и музыку.