img image001 image001 image001 image001 image001 image001 image001 image001 image001 image001 image001 image001 image001 image001 image001

Planets Sun Sun Sun
Статистика раздачи
Автор: Nickolas3434 | Размер: 3.29 ГБ | Добавлен: 12 сен 2015
Раздают: 948    Качают: 134
Скачать торрент
Скачать торрент
Описание торрента

СообщениеДобавлено: 12 сен 2015 

Citizenfour: Правда Сноудена / Citizenfour


#77
Год выпуска: 2014
Страна: США | Германия | Великобритания
Студия: Praxis Films | Participant Media
Жанр: Документальный
Продолжительность: 1:52:36
Перевод: Профессиональный (дублированный) | медиахолдинг "ВГТРК" по заказу "24_DOC"
Режиссер: Лора Пойтрас / Laura Poitras

Описание: В январе 2013 года Лора Пойтрас стала получать анонимные зашифрованные электронные письма от человека по имени «CITIZENFOUR», который утверждал, что у него есть доказательства существования нелегальных программ скрытого наблюдения, которое ведет АНБ в сотрудничестве с другими спецслужбами по всему миру. Пять месяцев спустя она и журналисты Гленн Гринвальд и Ивен МакАскилл прилетели в Гонконг для первой из многих встреч с этим человеком. Им оказался Эдвард Сноуден.


Автор рипа: lrn
Автор записи: kuzmichm2196
Сэмпл: sendfile

Тип релиза: HDTVRip 720p
Контейнер: MKV
Видео: 1280x720 (16:9), 25,000 fps, H264, ~4000 kbps avg, ~0.174 bit/pixel
Аудио: 48 kHz, AC3 Dolby Digital, 2/0 (L,R) ch, ~192.00 kbps avg

General
Unique ID : 183743585215232129595445698751670889385 (0x8A3BBA2F62112702B30FAA2D7639ABA9)
Complete name : E:uTorrent.TempDoneCitizenfour.2014.HDTV.720p.x264-RUS-lrn.mkv
Format : Matroska
Format version : Version 4 / Version 2
File size : 3.29 GiB
Duration : 1h 52mn
Overall bit rate : 4 178 Kbps
Movie name : Citizenfour.2014.HDTV.720p.x264-RUS-lrn
Encoded date : UTC 2010-02-22 21:41:31
Writing application : mkvmerge v5.9.0 ('On The Loose') built on Dec 9 2012 15:37:01
Writing library : libebml v1.3.0 + libmatroska v1.4.0
Video
ID : 1
Format : AVC
Format/Info : Advanced Video Codec
Format profile : High@L4.1
Format settings, CABAC : Yes
Format settings, ReFrames : 8 frames
Codec ID : V_MPEG4/ISO/AVC
Duration : 1h 52mn
Bit rate : 4 000 Kbps
Width : 1 280 pixels
Height : 720 pixels
Display aspect ratio : 16:9
Frame rate mode : Constant
Frame rate : 25.000 fps
Color space : YUV
Chroma subsampling : 4:2:0
Bit depth : 8 bits
Scan type : Progressive
Bits/(Pixel*Frame) : 0.174
Stream size : 3.07 GiB (93%)
Writing library : x264 core 142 r2479 dd79a61
Encoding settings : cabac=1 / ref=8 / deblock=1:-3:-3 / analyse=0x3:0x133 / me=umh / subme=9 / psy=1 / psy_rd=1.00:0.00 / mixed_ref=1 / me_range=32 / chroma_me=1 / trellis=2 / 8x8dct=1 / cqm=0 / deadzone=21,11 / fast_pskip=1 / chroma_qp_offset=-2 / threads=12 / lookahead_threads=2 / sliced_threads=0 / nr=0 / decimate=1 / interlaced=0 / bluray_compat=0 / constrained_intra=0 / bframes=8 / b_pyramid=2 / b_adapt=2 / b_bias=0 / direct=3 / weightb=1 / open_gop=0 / weightp=2 / keyint=250 / keyint_min=25 / scenecut=40 / intra_refresh=0 / rc_lookahead=50 / rc=2pass / mbtree=1 / bitrate=4000 / ratetol=1.0 / qcomp=0.60 / qpmin=0 / qpmax=69 / qpstep=4 / cplxblur=20.0 / qblur=0.5 / vbv_maxrate=62500 / vbv_bufsize=78125 / nal_hrd=none / filler=0 / ip_ratio=1.40 / aq=1:1.00
Default : Yes
Forced : No
Color range : Limited
Color primaries : BT.709
Transfer characteristics : BT.709
Matrix coefficients : BT.709
Audio
ID : 2
Format : AC-3
Format/Info : Audio Coding 3
Mode extension : CM (complete main)
Format settings, Endianness : Big
Codec ID : A_AC3
Duration : 1h 52mn
Bit rate mode : Constant
Bit rate : 192 Kbps
Channel(s) : 2 channels
Channel positions : Front: L R
Sampling rate : 48.0 KHz
Compression mode : Lossy
Delay relative to video : -80ms
Stream size : 155 MiB (5%)
Language : Russian
Default : Yes
Forced : No
raw [info]: 1280x720p 1:1 @ 25/1 fps (cfr)
x264 [info]: using SAR=1/1
x264 [info]: using cpu capabilities: MMX2 SSE2Fast SSSE3 SSE4.2 AVX
x264 [info]: profile High, level 4.1
x264 [info]: frame I:956 Avg QP:10.09 size:129357
x264 [info]: frame P:36255 Avg QP:13.17 size: 47804
x264 [info]: frame B:131702 Avg QP:15.56 size: 11453
x264 [info]: consecutive B-frames: 1.5% 2.5% 5.7% 27.7% 20.1% 24.7% 7.1% 6.4% 4.3%
x264 [info]: mb I I16..4: 14.3% 65.9% 19.8%
x264 [info]: mb P I16..4: 1.7% 11.3% 1.3% P16..4: 33.1% 23.2% 14.7% 0.8% 0.3% skip:13.6%
x264 [info]: mb B I16..4: 0.1% 0.8% 0.1% B16..8: 32.5% 10.3% 2.7% direct: 8.5% skip:45.0% L0:42.1% L1:45.9% BI:11.9%
x264 [info]: 8x8 transform intra:77.2% inter:49.8%
x264 [info]: direct mvs spatial:99.3% temporal:0.7%
x264 [info]: coded y,uvDC,uvAC intra: 77.9% 86.0% 72.1% inter: 24.6% 28.0% 5.4%
x264 [info]: i16 v,h,dc,p: 46% 12% 8% 35%
x264 [info]: i8 v,h,dc,ddl,ddr,vr,hd,vl,hu: 16% 11% 15% 7% 9% 10% 10% 10% 11%
x264 [info]: i4 v,h,dc,ddl,ddr,vr,hd,vl,hu: 16% 12% 8% 8% 13% 12% 11% 9% 10%
x264 [info]: i8c dc,h,v,p: 50% 21% 18% 11%
x264 [info]: Weighted P-Frames: Y:0.9% UV:0.1%
x264 [info]: ref P L0: 52.0% 8.2% 16.1% 6.4% 5.4% 4.5% 4.0% 3.1% 0.2% 0.0%
x264 [info]: ref B L0: 81.0% 11.0% 3.6% 1.7% 1.4% 0.8% 0.5%
x264 [info]: ref B L1: 93.9% 6.1%
x264 [info]: kb/s:3984.55
encoded 168917 frames, 11.31 fps, 3984.55 kb/s



   Похожие торренты   Торрент   Размер 
В этой теме нет новых непрочитанных сообщений. Citizenfour: Правда Сноудена / Citizenfour (2014) HDTVRip-AVC | D

1096 | 209

1.33 ГБ

В этой теме нет новых непрочитанных сообщений. Гражданин четыре / Citizenfour (2014) WEB-DLRip 720p

856 | 42

2.16 ГБ

В этой теме нет новых непрочитанных сообщений. Гражданин четыре / Citizenfour (2014) WEB-DLRip 720p | Sub

258 | 23

2.86 ГБ

В этой теме нет новых непрочитанных сообщений. Гражданин четыре / CitizenFour (2014) WEB-DLRip

433 | 21

1.43 ГБ

В этой теме нет новых непрочитанных сообщений. Гражданин четыре / Citizenfour (2014) HDTV 1080p

103 | 18

4.51 ГБ

В этой теме нет новых непрочитанных сообщений. Сборник клипов - Eurodance 90-х и 2000 годов. Часть 11 (1987-2014) DVDRip, HDTVRip, HDTVRip 720p, HDTVRip 1080р, SATRip, TVRip, VHSRip

0 | 28

127.72 ГБ

В этой теме нет новых непрочитанных сообщений. Сборник клипов - Eurodance 90-х и 2000 годов. Часть 11 (1987-2014) DVDRip, HDTVRip, HDTVRip 720p, HDTVRip 1080р, SATRip, TVRip, VHSRip

24 | 61

127.68 ГБ




Вы не можете начинать темы
Вы не можете отвечать на сообщения
Вы не можете редактировать свои сообщения
Вы не можете удалять свои сообщения
Вы не можете добавлять вложения

Перейти:  
Для Мосгорсуда, Роскомнадзора и рекламодателей: mosgorsud-torrent[собачка]yandex.ru
 Вход
ppkBB3cker v.2 © 2008-2014 @ PPK
[ Time : 0.052s | 15 Queries | GZIP : Off ]

Торрент трекер RUTOR.IN, Не можете зайти на rutor.org? Какой новый адрес рутор? Какое зеркало рутор? Не работает rutor.org и зеркала? Тогда наш торрент специально для вас. Rutor.in неофициальное зеркало rutor. В случае если у Вас заблокирован rutor или вдруг Вы не можете на него зайти, то Вы без труда сможете скачать бесплатно и без рекламы последние новинки кино, игр, сериалов и прочего у нас, на Rutor.in. Не нужно использовать прокси, чтобы зайти на рутор, достаточно воспользоваться нашим ресурсом. Все новые фильмы, игры, сериалы, книги и музыка за 2013 и 2014 годы через торрент бесплатно. Скачивайте фильмы в хорошем качестве, игры для пк, xbox, playstation без регистрации. У нас вы найдете новые Зарубежные сериалы и Русские сериалы 2013, 2014, 2015 годов. Оставайтесь с нами, качайте любимые фильмы, игры, сериалы, книги и музыку.