img image001 image001 image001 image001 image001 image001 image001 image001 image001 image001 image001 image001 image001 image001 image001

Planets Sun Sun Sun
Статистика раздачи
Автор: Nickolas3434 | Размер: 1.31 ГБ | Добавлен: 14 сен 2015
Раздают: 60    Качают: 8
Скачать торрент
Скачать торрент
Описание торрента

СообщениеДобавлено: 14 сен 2015 


Дата/Год выпуска: 10.09.2015
Страна: Россия
Жанр: Ток-шоу
Продолжительность: 00:59:12
Перевод: Не требуется
Телеканал: Дождь
Описание: Сирийские беженцы в Европе: как это изменит мир и европейский континент? Верно ли, что под видом беженцев в Европу сейчас проникают боевики ИГИЛ? Что тут может сделать Россия?
качество: DVB
формат: MPG
Видео: MPEG-2 720x576 2 923 Кбит/сек 16:9 25.000 fps
Аудио: MP2 2 channels 48.0 KHz 192 Кбит/сек
General
Complete name : D:Stol_10.09.15.mpg
Format : MPEG-PS
File size : 1.31 GiB
Duration : 59mn 12s
Overall bit rate mode : Variable
Overall bit rate : 3 179 Kbps
Video
ID : 224 (0xE0)
Format : MPEG Video
Format version : Version 2
Format profile : High@Main
Format settings, BVOP : Yes
Format settings, Matrix : Default
Format settings, GOP : Variable
Duration : 59mn 12s
Bit rate mode : Variable
Bit rate : 2 923 Kbps
Maximum bit rate : 9 500 Kbps
Width : 720 pixels
Height : 576 pixels
Display aspect ratio : 16:9
Frame rate : 25.000 fps
Standard : PAL
Color space : YUV
Chroma subsampling : 4:2:0
Bit depth : 8 bits
Scan type : Interlaced
Scan order : Bottom Field First
Compression mode : Lossy
Bits/(Pixel*Frame) : 0.282
Time code of first frame : 00:00:00:00
Time code source : Group of pictures header
Stream size : 1.21 GiB (92%)
Color primaries : BT.601 NTSC
Transfer characteristics : BT.601
Matrix coefficients : BT.601
Audio
ID : 192 (0xC0)
Format : MPEG Audio
Format version : Version 1
Format profile : Layer 2
Duration : 59mn 12s
Bit rate mode : Constant
Bit rate : 192 Kbps
Channel(s) : 2 channels
Sampling rate : 48.0 KHz
Compression mode : Lossy
Stream size : 81.3 MiB (6%)




   Похожие торренты   Торрент   Размер 
В этой теме нет новых непрочитанных сообщений. Познавательное ТВ: Круглый стол в Государственной Думе РФ (2013) HD 720p

2 | 2

797.03 МБ

В этой теме нет новых непрочитанных сообщений. Познавательное ТВ: Круглый стол в Государственной Думе РФ (2013) HDRip

3 | 1

341.18 МБ

В этой теме нет новых непрочитанных сообщений. Круглый стол «Современные угрозы России и цивилизации. Пути выхода» (19.11.2011) DVDRip

0 | 1

3.47 ГБ

В этой теме нет новых непрочитанных сообщений. Обложка. Беженцы: двойные стандарты. (2016) DVB

75 | 2

544.05 МБ

В этой теме нет новых непрочитанных сообщений. Братушева А. (ред.) - Праздничный стол за 30 минут (2015) PDF

250 | 1

16.07 МБ

В этой теме нет новых непрочитанных сообщений. Теория заговора. Новогодний стол (2015) HDTVRip от GeneralFilm

172 | 6

549.41 МБ

В этой теме нет новых непрочитанных сообщений. Теория Заговора. Новогодний Стол (2015) HDTVRip 720p

19 | 1

1.18 ГБ




Вы не можете начинать темы
Вы не можете отвечать на сообщения
Вы не можете редактировать свои сообщения
Вы не можете удалять свои сообщения
Вы не можете добавлять вложения

Перейти:  
Для Мосгорсуда, Роскомнадзора и рекламодателей: mosgorsud-torrent[собачка]yandex.ru
 Вход
ppkBB3cker v.2 © 2008-2014 @ PPK
[ Time : 0.052s | 15 Queries | GZIP : Off ]

Торрент трекер RUTOR.IN, Не можете зайти на rutor.org? Какой новый адрес рутор? Какое зеркало рутор? Не работает rutor.org и зеркала? Тогда наш торрент специально для вас. Rutor.in неофициальное зеркало rutor. В случае если у Вас заблокирован rutor или вдруг Вы не можете на него зайти, то Вы без труда сможете скачать бесплатно и без рекламы последние новинки кино, игр, сериалов и прочего у нас, на Rutor.in. Не нужно использовать прокси, чтобы зайти на рутор, достаточно воспользоваться нашим ресурсом. Все новые фильмы, игры, сериалы, книги и музыка за 2013 и 2014 годы через торрент бесплатно. Скачивайте фильмы в хорошем качестве, игры для пк, xbox, playstation без регистрации. У нас вы найдете новые Зарубежные сериалы и Русские сериалы 2013, 2014, 2015 годов. Оставайтесь с нами, качайте любимые фильмы, игры, сериалы, книги и музыку.