img image001 image001 image001 image001 image001 image001 image001 image001 image001 image001 image001 image001 image001 image001 image001

Planets Sun Sun Sun
Статистика раздачи
Автор: Nickolas3434 | Размер: 442.71 МБ | Добавлен: 14 сен 2015
Раздают: 88    Качают: 5
Скачать торрент
Скачать торрент
Описание торрента

СообщениеДобавлено: 14 сен 2015 


Информация о фильме
Название: Первая передача
Год выхода: 2015
Ведущий: Виктор Травин
О фильме:
«Первая передача» на НТВ —новый проект для автомобилистов и про автомобилистов. Ведущий «Первой передачи» — Виктор Травин, президент Коллегии правовой защиты автовладельцев. Уже много лет этот известный журналист защищает права автолюбителей. В автомире для него нет секретов и закрытых дверей. Всех, кто не представляет своей жизни без автомобиля, и тех, кто только задумывается о приобретении собственного авто, ждут ответы на самые актуальные вопросы.Отдельный блок программы будет посвящен самой, возможно, больной для российских автовладельцев теме - нашим дорогам. Если качество дороги оставляет желать лучшего, а проехать по ней можно только на вездеходе, зрители НТВ могут быть уверены - это не останется без внимания корреспондентов программы. Они не только найдут и покажут бездорожье, но и постараются ответить на вопрос, кто в ответе за плачевное состояние проезжей части в каждом конкретном случае. Дорога полна неожиданностей: все самое необычное, попавшее в объективы любительских камер - трагичные, а порой нелепые и комичные дорожные происшествия. Ну и конечно - «Первая передача» не обойдется без новостей из автомобильного мира. Репортажи с главных международных автомобильных салонов, еженедельный обзор автособытий и автотрендов - в каждом выпуске программы. Хотите из простого автолюбителя стать автопрофессионалом? Смотрите «Первую передачу» с Виктором Травиным каждое воскресенье на НТВ!
Продолжительность: ~ 00:33:00
Перевод: Не требуется
Файл
Кодек: XviD
Качество: SATRip
Видео: 720x448 (1.61:1), 25 fps, XviD build 50 ~1800 kbps avg, 0.22 bit/pixel
Звук: 48 kHz, MPEG Layer 3, 2 ch, ~128.00 kbps avg


Общее
Полное имя : D:ФильмыPervaya.peredacha.(2015.09.13).SATRip.avi
Формат : AVI
Формат/Информация : Audio Video Interleave
Размер файла : 443 Мбайт
Продолжительность : 31 м.
Общий поток : 1937 Кбит/сек
Программа кодирования : VirtualDubMod 1.5.10.3 | www.virtualdub-fr.org || (build 2550/release)
Библиотека кодирования : VirtualDubMod build 2550/release
Видео
Идентификатор : 0
Формат : MPEG-4 Visual
Профиль формата : Advanced Simple@L5
Параметр BVOP формата : 2
Параметр QPel формата : Нет
Параметр GMC формата : Без точки перехода
Параметр матрицы формата : Default (H.263)
Идентификатор кодека : XVID
Идентификатор кодека/Подсказка : XviD
Продолжительность : 31 м.
Битрейт : 1800 Кбит/сек
Ширина : 720 пикселей
Высота : 448 пикселей
Соотношение сторон : 16:10
Частота кадров : 25,000 кадров/сек
Цветовое пространство : YUV
Субдискретизация насыщенности : 4:2:0
Битовая глубина : 8 бит
Тип развёртки : Прогрессивная
Метод сжатия : С потерями
Бит/(Пиксели*Кадры) : 0.223
Размер потока : 411 Мбайт (93%)
Библиотека кодирования : XviD 1.2.1 (UTC 2008-12-04)
Аудио
Идентификатор : 1
Формат : MPEG Audio
Версия формата : Version 1
Профиль формата : Layer 3
Идентификатор кодека : 55
Идентификатор кодека/Подсказка : MP3
Продолжительность : 31 м.
Вид битрейта : Постоянный
Битрейт : 128 Кбит/сек
Каналы : 2 канала
Частота : 48,0 КГц
Метод сжатия : С потерями
Размер потока : 29,2 Мбайт (7%)
Выравнивание : Соединение по промежуткам
Продолжительность промежутка : 40 мс. (1,00 видеокадр)
Время предзагрузки промежутка : 504 мс.
Библиотека кодирования : LAME3.99r
Настройки программы : -m s -V 4 -q 2 -lowpass 17 -b 128

Релиз от:



   Похожие торренты   Торрент   Размер 
В этой теме нет новых непрочитанных сообщений. Первая передача [эфир от 15.02 - 08.03] (2015) SATRip

60 | 15

1.76 ГБ

В этой теме нет новых непрочитанных сообщений. Первая передача [эфир от 18.01] (2015) SATRip

226 | 15

379.99 МБ

В этой теме нет новых непрочитанных сообщений. Первая передача [эфир от 08.02] (2015) SATRip

30 | 5

459.26 МБ

В этой теме нет новых непрочитанных сообщений. Первая передача [22.04] (2012) SATRip

0 | 1

284.09 МБ

В этой теме нет новых непрочитанных сообщений. Первая передача [07.05] (2012) SATRip

0 | 1

306.25 МБ

В этой теме нет новых непрочитанных сообщений. Первая передача [30.04] (2012) SATRip

0 | 1

282 МБ

В этой теме нет новых непрочитанных сообщений. Первая передача [18.03-08.04] (2012) SATRip

0 | 2

1.21 ГБ




Вы не можете начинать темы
Вы не можете отвечать на сообщения
Вы не можете редактировать свои сообщения
Вы не можете удалять свои сообщения
Вы не можете добавлять вложения

Перейти:  
Для Мосгорсуда, Роскомнадзора и рекламодателей: mosgorsud-torrent[собачка]yandex.ru
 Вход
ppkBB3cker v.2 © 2008-2014 @ PPK
[ Time : 0.043s | 14 Queries | GZIP : Off ]

Торрент трекер RUTOR.IN, Не можете зайти на rutor.org? Какой новый адрес рутор? Какое зеркало рутор? Не работает rutor.org и зеркала? Тогда наш торрент специально для вас. Rutor.in неофициальное зеркало rutor. В случае если у Вас заблокирован rutor или вдруг Вы не можете на него зайти, то Вы без труда сможете скачать бесплатно и без рекламы последние новинки кино, игр, сериалов и прочего у нас, на Rutor.in. Не нужно использовать прокси, чтобы зайти на рутор, достаточно воспользоваться нашим ресурсом. Все новые фильмы, игры, сериалы, книги и музыка за 2013 и 2014 годы через торрент бесплатно. Скачивайте фильмы в хорошем качестве, игры для пк, xbox, playstation без регистрации. У нас вы найдете новые Зарубежные сериалы и Русские сериалы 2013, 2014, 2015 годов. Оставайтесь с нами, качайте любимые фильмы, игры, сериалы, книги и музыку.