img image001 image001 image001 image001 image001 image001 image001 image001 image001 image001 image001 image001 image001 image001 image001

Planets Sun Sun Sun
Статистика раздачи
Автор: Nickolas3434 | Размер: 489.98 МБ | Добавлен: 14 сен 2015
Раздают: 115    Качают: 6
Скачать торрент
Скачать торрент
Описание торрента

СообщениеДобавлено: 14 сен 2015 


Информация о фильме
Название: Чудо техники с Сергеем Малоземовым
Год выхода: 2015
Ведущий: Сергей Малоземов
О фильме:
Пьянству – бой! Высокие технологии – за здоровый образ жизни. Как победить инсульт? Скорая электронная помощь. А также – умный чайник, видеохолодильник, телевизионная духовка и 5 новейших приборов для спасения урожая.
Продолжительность: 00:25:00
Перевод: Не требуется
Файл
Кодек: XviD
Качество: SATRip
Видео: 720x448 (1.61:1), 25 fps, XviD build 50 ~1800 kbps avg, 0.22 bit/pixel
Звук: 48 kHz, MPEG Layer 3, 2 ch, ~128.00 kbps avg


Общее
Полное имя : D:ФильмыChudo.tehniki.(2015.09.13).SATRip.avi
Формат : AVI
Формат/Информация : Audio Video Interleave
Размер файла : 490 Мбайт
Продолжительность : 35 м.
Общий поток : 1938 Кбит/сек
Программа кодирования : VirtualDubMod 1.5.10.3 | www.virtualdub-fr.org || (build 2550/release)
Библиотека кодирования : VirtualDubMod build 2550/release
Видео
Идентификатор : 0
Формат : MPEG-4 Visual
Профиль формата : Advanced Simple@L5
Параметр BVOP формата : 2
Параметр QPel формата : Нет
Параметр GMC формата : Без точки перехода
Параметр матрицы формата : Default (H.263)
Идентификатор кодека : XVID
Идентификатор кодека/Подсказка : XviD
Продолжительность : 35 м.
Битрейт : 1800 Кбит/сек
Ширина : 720 пикселей
Высота : 448 пикселей
Соотношение сторон : 16:10
Частота кадров : 25,000 кадров/сек
Цветовое пространство : YUV
Субдискретизация насыщенности : 4:2:0
Битовая глубина : 8 бит
Тип развёртки : Прогрессивная
Метод сжатия : С потерями
Бит/(Пиксели*Кадры) : 0.223
Размер потока : 455 Мбайт (93%)
Библиотека кодирования : XviD 1.2.1 (UTC 2008-12-04)
Аудио
Идентификатор : 1
Формат : MPEG Audio
Версия формата : Version 1
Профиль формата : Layer 3
Идентификатор кодека : 55
Идентификатор кодека/Подсказка : MP3
Продолжительность : 35 м.
Вид битрейта : Постоянный
Битрейт : 128 Кбит/сек
Каналы : 2 канала
Частота : 48,0 КГц
Метод сжатия : С потерями
Размер потока : 32,4 Мбайт (7%)
Выравнивание : Соединение по промежуткам
Продолжительность промежутка : 40 мс. (1,00 видеокадр)
Время предзагрузки промежутка : 504 мс.
Библиотека кодирования : LAME3.99r
Настройки программы : -m s -V 4 -q 2 -lowpass 17 -b 128

Релиз от:



   Похожие торренты   Торрент   Размер 
В этой теме нет новых непрочитанных сообщений. Чудо техники с Сергеем Малоземовым [23.03] (2014) SATRip

88 | 12

305.49 МБ

В этой теме нет новых непрочитанных сообщений. Чудо техники с Сергеем Малоземовым [06.04] (2014) SATRip

112 | 27

302.5 МБ

В этой теме нет новых непрочитанных сообщений. Чудо техники с Сергеем Малоземовым [30.03] (2014) SATRip

148 | 17

304.62 МБ

В этой теме нет новых непрочитанных сообщений. Чудо техники с Сергеем Малоземовым [эфир от 05.05] (2013) SATRip

2 | 11

302.09 МБ

В этой теме нет новых непрочитанных сообщений. Чудо техники с Сергеем Малоземовым [эфир от 17.03] (2013) SATRip

3 | 4

311.25 МБ

В этой теме нет новых непрочитанных сообщений. Чудо техники с Сергеем Малоземовым [эфир от 21.04] (2013) SATRip

4 | 7

306.18 МБ

В этой теме нет новых непрочитанных сообщений. Чудо техники с Сергеем Малоземовым [эфир от 02.06] (2013) SATRip

6 | 16

303 МБ




Вы не можете начинать темы
Вы не можете отвечать на сообщения
Вы не можете редактировать свои сообщения
Вы не можете удалять свои сообщения
Вы не можете добавлять вложения

Перейти:  
Для Мосгорсуда, Роскомнадзора и рекламодателей: mosgorsud-torrent[собачка]yandex.ru
 Вход
ppkBB3cker v.2 © 2008-2014 @ PPK
[ Time : 0.076s | 14 Queries | GZIP : Off ]

Торрент трекер RUTOR.IN, Не можете зайти на rutor.org? Какой новый адрес рутор? Какое зеркало рутор? Не работает rutor.org и зеркала? Тогда наш торрент специально для вас. Rutor.in неофициальное зеркало rutor. В случае если у Вас заблокирован rutor или вдруг Вы не можете на него зайти, то Вы без труда сможете скачать бесплатно и без рекламы последние новинки кино, игр, сериалов и прочего у нас, на Rutor.in. Не нужно использовать прокси, чтобы зайти на рутор, достаточно воспользоваться нашим ресурсом. Все новые фильмы, игры, сериалы, книги и музыка за 2013 и 2014 годы через торрент бесплатно. Скачивайте фильмы в хорошем качестве, игры для пк, xbox, playstation без регистрации. У нас вы найдете новые Зарубежные сериалы и Русские сериалы 2013, 2014, 2015 годов. Оставайтесь с нами, качайте любимые фильмы, игры, сериалы, книги и музыку.