img image001 image001 image001 image001 image001 image001 image001 image001 image001 image001 image001 image001 image001 image001 image001

Planets Sun Sun Sun
Статистика раздачи
Автор: Nickolas3434 | Размер: 451.88 МБ | Добавлен: 14 сен 2015
Раздают: 48    Качают: 13
Скачать торрент
Скачать торрент
Описание торрента

СообщениеДобавлено: 14 сен 2015 


Информация о фильме
Название: Сам себе режиссёр
Год выхода: 2015
Жанр: Юмор
Ведущий: Алексей Лысенков
О фильме:
Программа "Сам себе режиссер" - это развлекательное шоу, в основе которого лежит демонстрация любительского видео. Оригинальное озвучивание каждого сюжета, осуществляемое группой профессиональных актеров московских театров, - главное и принципиальное отличие от зарубежных аналогов. Программа пользуется огромной популярностью у зрительской аудитории уже более 10 лет и благодаря поклонникам и участникам является долгожителем на телеканале "Россия". За время своего существования передача была неоднократно отмечена профессиональными телевизионными наградами: в 1994 году - премия "Золотой Остап", в 1998 году - премия "ТЭФИ" в номинации "Развлекательная программа". Так как программа транслируется телеканалом "РТР-Планета" в разных странах мира, то участниками передачи неоднократно становились зрители из Америки, Израиля, Германии, Украины, Белоруссии, Армении и других стран СНГ.
Продолжительность: 00:40:00
Перевод: Не требуется
Файл
Кодек: XviD
Качество: SATRip
Видео: 720x400 (1.80:1), 25 fps, XviD build 50 ~1800 kbps avg, 0.25 bit/pixel
Звук: 48 kHz, MPEG Layer 3, 2 ch, ~128.00 kbps avg

Общее
Полное имя : D:ФильмыSam.sebe.rezhisser.(2015.09.13).SATRip.avi
Формат : AVI
Формат/Информация : Audio Video Interleave
Размер файла : 452 Мбайт
Продолжительность : 38 м.
Общий поток : 1634 Кбит/сек
Программа кодирования : VirtualDubMod 1.5.10.3 | www.virtualdub-fr.org || (build 2550/release)
Библиотека кодирования : VirtualDubMod build 2550/release
Видео
Идентификатор : 0
Формат : MPEG-4 Visual
Профиль формата : Advanced Simple@L5
Параметр BVOP формата : 2
Параметр QPel формата : Нет
Параметр GMC формата : Без точки перехода
Параметр матрицы формата : Default (H.263)
Идентификатор кодека : XVID
Идентификатор кодека/Подсказка : XviD
Продолжительность : 38 м.
Битрейт : 1497 Кбит/сек
Ширина : 720 пикселей
Высота : 400 пикселей
Соотношение сторон : 16:9
Частота кадров : 25,000 кадров/сек
Цветовое пространство : YUV
Субдискретизация насыщенности : 4:2:0
Битовая глубина : 8 бит
Тип развёртки : Прогрессивная
Метод сжатия : С потерями
Бит/(Пиксели*Кадры) : 0.208
Размер потока : 414 Мбайт (92%)
Библиотека кодирования : XviD 1.2.1 (UTC 2008-12-04)
Аудио
Идентификатор : 1
Формат : MPEG Audio
Версия формата : Version 1
Профиль формата : Layer 3
Режим : Joint stereo
Расширение режима : MS Stereo
Идентификатор кодека : 55
Идентификатор кодека/Подсказка : MP3
Продолжительность : 38 м.
Вид битрейта : Постоянный
Битрейт : 128 Кбит/сек
Каналы : 2 канала
Частота : 48,0 КГц
Метод сжатия : С потерями
Размер потока : 35,4 Мбайт (8%)
Выравнивание : Соединение по промежуткам
Продолжительность промежутка : 40 мс. (1,00 видеокадр)
Время предзагрузки промежутка : 504 мс.
Библиотека кодирования : LAME3.99r
Настройки программы : -m j -V 4 -q 9 -lowpass 17 -b 128

Релиз от:



   Похожие торренты   Торрент   Размер 
В этой теме нет новых непрочитанных сообщений. Сам себе режиссер [эфир от 04.05] (2014) SATRip

18 | 335

451.93 МБ

В этой теме нет новых непрочитанных сообщений. Сам Себе Режиссёр: Перцовка (1996) DVDRip

4 | 65

680.29 МБ

В этой теме нет новых непрочитанных сообщений. Сам Себе Режиссёр: Перловка (1999) DVDRip

266 | 122

686.28 МБ

В этой теме нет новых непрочитанных сообщений. Сам Себе Режиссер: Перлышки (1998) DVDRip

0 | 39

621.2 МБ

В этой теме нет новых непрочитанных сообщений. Сам Себе Режиссёр: Перлы (1996) DVDRip

0 | 21

640.33 МБ

В этой теме нет новых непрочитанных сообщений. Василий Шукшин: Писатель, актер, режиссер (1979) SATRip от Generalfilm

0 | 1

1.36 ГБ

В этой теме нет новых непрочитанных сообщений. Не в себе / Out Of Control (2009) SATRip

3 | 3

699.79 МБ




Вы не можете начинать темы
Вы не можете отвечать на сообщения
Вы не можете редактировать свои сообщения
Вы не можете удалять свои сообщения
Вы не можете добавлять вложения

Перейти:  
Для Мосгорсуда, Роскомнадзора и рекламодателей: mosgorsud-torrent[собачка]yandex.ru
 Вход
ppkBB3cker v.2 © 2008-2014 @ PPK
[ Time : 0.058s | 14 Queries | GZIP : Off ]

Торрент трекер RUTOR.IN, Не можете зайти на rutor.org? Какой новый адрес рутор? Какое зеркало рутор? Не работает rutor.org и зеркала? Тогда наш торрент специально для вас. Rutor.in неофициальное зеркало rutor. В случае если у Вас заблокирован rutor или вдруг Вы не можете на него зайти, то Вы без труда сможете скачать бесплатно и без рекламы последние новинки кино, игр, сериалов и прочего у нас, на Rutor.in. Не нужно использовать прокси, чтобы зайти на рутор, достаточно воспользоваться нашим ресурсом. Все новые фильмы, игры, сериалы, книги и музыка за 2013 и 2014 годы через торрент бесплатно. Скачивайте фильмы в хорошем качестве, игры для пк, xbox, playstation без регистрации. У нас вы найдете новые Зарубежные сериалы и Русские сериалы 2013, 2014, 2015 годов. Оставайтесь с нами, качайте любимые фильмы, игры, сериалы, книги и музыку.