img image001 image001 image001 image001 image001 image001 image001 image001 image001 image001 image001 image001 image001 image001 image001

Planets Sun Sun Sun
Статистика раздачи
Автор: Nickolas3434 | Размер: 328.23 МБ | Добавлен: 15 сен 2015
Раздают: 57    Качают: 1
Скачать торрент
Скачать торрент
Описание торрента

СообщениеДобавлено: 15 сен 2015 


О фильме:
В гостях у Сергея Медведева политолог и востоковед Алексей Малашенко.
Год выпуска: 2015
Страна: Россия
Студия: Телеканал "Дождь"
Жанр: Интервью
Продолжительность: 00:35:52
Тип релиза: HDTVRip
Контейнер: AVI
Видео: DivX 720х400 16:9 1 141 Kbps 25.000 fps
Аудио: Мр3 128 Kbps 48.0 KHz 2 channels
Format : AVI
Format/Info : Audio Video Interleave
File size : 328 MiB
Duration : 35mn 53s
Overall bit rate : 1 279 Kbps
Video
ID : 0
Format : MPEG-4 Visual
Codec ID : DIV3
Codec ID/Hint : DivX 3 Low
Duration : 35mn 53s
Bit rate : 1 141 Kbps
Width : 720 pixels
Height : 400 pixels
Display aspect ratio : 16:9
Frame rate : 25.000 fps
Color space : YUV
Chroma subsampling : 4:2:0
Bit depth : 8 bits
Compression mode : Lossy
Bits/(Pixel*Frame) : 0.158
Stream size : 293 MiB (89%)
Audio
ID : 1
Format : MPEG Audio
Format version : Version 1
Format profile : Layer 3
Codec ID : 55
Codec ID/Hint : MP3
Duration : 35mn 52s
Source duration : 35mn 52s
Bit rate mode : Constant
Bit rate : 128 Kbps
Channel(s) : 1 channel
Sampling rate : 48.0 KHz
Compression mode : Lossy
Stream size : 32.9 MiB (10%)
Alignment : Aligned on interleaves
Interleave, duration : 40 ms (1.00 video frame)
Writing library : LAME3.99.5




   Похожие торренты   Торрент   Размер 
В этой теме нет новых непрочитанных сообщений. Медведев - Алексей Зубов [26.05.2015] (2015) TVRip-AVC

33 | 5

392.1 МБ

В этой теме нет новых непрочитанных сообщений. Медведев - Григорий Явлинский [24.11] (2015) HDTVRip 720p

63 | 0

474.47 МБ

В этой теме нет новых непрочитанных сообщений. Медведев - Владислав Белов. 25 лет объединения Германии [03.10] (2015) HDTVRip

20 | 6

615.56 МБ

В этой теме нет новых непрочитанных сообщений. Медведев - Владимир Чупров. Освоение Арктики [29.09] (2015) HDTVRip

19 | 9

469.84 МБ

В этой теме нет новых непрочитанных сообщений. Медведев - Олег Будницкий.150 лет терроризму в России. [17.11] (2015) HDTVRip 720p

29 | 8

506.06 МБ

В этой теме нет новых непрочитанных сообщений. Медведев - Олег Хлевнюк. Роль Сталина в истории России [15.12] (2015) HDTVRip 720p

22 | 3

500.43 МБ

В этой теме нет новых непрочитанных сообщений. Право голоса. Кто воюет в Сирии? Часть 1 [15.09] (2015) SATRip

23 | 2

948.9 МБ




Вы не можете начинать темы
Вы не можете отвечать на сообщения
Вы не можете редактировать свои сообщения
Вы не можете удалять свои сообщения
Вы не можете добавлять вложения

Перейти:  
Для Мосгорсуда, Роскомнадзора и рекламодателей: mosgorsud-torrent[собачка]yandex.ru
 Вход
ppkBB3cker v.2 © 2008-2014 @ PPK
[ Time : 0.066s | 15 Queries | GZIP : Off ]

Торрент трекер RUTOR.IN, Не можете зайти на rutor.org? Какой новый адрес рутор? Какое зеркало рутор? Не работает rutor.org и зеркала? Тогда наш торрент специально для вас. Rutor.in неофициальное зеркало rutor. В случае если у Вас заблокирован rutor или вдруг Вы не можете на него зайти, то Вы без труда сможете скачать бесплатно и без рекламы последние новинки кино, игр, сериалов и прочего у нас, на Rutor.in. Не нужно использовать прокси, чтобы зайти на рутор, достаточно воспользоваться нашим ресурсом. Все новые фильмы, игры, сериалы, книги и музыка за 2013 и 2014 годы через торрент бесплатно. Скачивайте фильмы в хорошем качестве, игры для пк, xbox, playstation без регистрации. У нас вы найдете новые Зарубежные сериалы и Русские сериалы 2013, 2014, 2015 годов. Оставайтесь с нами, качайте любимые фильмы, игры, сериалы, книги и музыку.