img image001 image001 image001 image001 image001 image001 image001 image001 image001 image001 image001 image001 image001 image001 image001

Planets Sun Sun Sun
Статистика раздачи
Автор: Nickolas3434 | Размер: 954.53 МБ | Добавлен: 16 сен 2015
Раздают: 14    Качают: 1
Скачать торрент
Скачать торрент
Описание торрента

СообщениеДобавлено: 16 сен 2015 


Информация о фильме
Название: Право голоса. Кишинёвский майдан
Год выхода: 2015
Жанр: Ток-шоу, дискуссия, политика
Ведущие: Ольга Кокорекина и Роман Бабаян
О фильме:
Уже вторую неделю в Кишинёве продолжаются массовые акции протеста. На центральной площади молдавской столицы тысячи людей требуют отставки президента и правительства, а также отказываются идти на переговоры с властью. Что происходит в Молдове сегодня? Мы наблюдаем очередную попытку Запада провести "цветную революцию"?
Страна: Россия, "ТВ Центр"
Продолжительность: ~01:08:29
Перевод: Не требуется
Файл
Кодек: XviD
Качество: SATRip
Видео: XviD, 1800 Кбит/с, 720x448
Звук: МР3, 2 ch, 128 Кбит/с


Общее
Полное имя : D:ФильмыPravo.golosa.2015.09.14.kishenevskii.maidan.SATRip.avi
Формат : AVI
Формат/Информация : Audio Video Interleave
Размер файла : 955 Мбайт
Продолжительность : 1 ч. 8 м.
Общий поток : 1938 Кбит/сек
Библиотека кодирования : VirtualDub build 32817/release
Видео
Идентификатор : 0
Формат : MPEG-4 Visual
Профиль формата : Advanced Simple@L5
Параметр BVOP формата : 2
Параметр QPel формата : Нет
Параметр GMC формата : Без точки перехода
Параметр матрицы формата : Default (MPEG)
Идентификатор кодека : XVID
Идентификатор кодека/Подсказка : XviD
Продолжительность : 1 ч. 8 м.
Битрейт : 1800 Кбит/сек
Ширина : 720 пикселей
Высота : 448 пикселей
Соотношение сторон : 16:10
Частота кадров : 25,000 кадров/сек
Цветовое пространство : YUV
Субдискретизация насыщенности : 4:2:0
Битовая глубина : 8 бит
Тип развёртки : Прогрессивная
Метод сжатия : С потерями
Бит/(Пиксели*Кадры) : 0.223
Размер потока : 887 Мбайт (93%)
Библиотека кодирования : XviD 1.2.1 (UTC 2008-12-04)
Аудио
Идентификатор : 1
Формат : MPEG Audio
Версия формата : Version 1
Профиль формата : Layer 3
Режим : Joint stereo
Расширение режима : MS Stereo
Идентификатор кодека : 55
Идентификатор кодека/Подсказка : MP3
Продолжительность : 1 ч. 8 м.
Вид битрейта : Постоянный
Битрейт : 128 Кбит/сек
Каналы : 2 канала
Частота : 48,0 КГц
Метод сжатия : С потерями
Размер потока : 63,1 Мбайт (7%)
Выравнивание : Разделение по промежуткам
Продолжительность промежутка : 40 мс. (1,00 видеокадр)
Время предзагрузки промежутка : 500 мс.

Релиз от:



   Похожие торренты   Торрент   Размер 
В этой теме нет новых непрочитанных сообщений. Право голоса. Майдан навсегда? [03.02] (2014) WEBRip

28 | 2

747.19 МБ

В этой теме нет новых непрочитанных сообщений. Право голоса. (Выпуски за Февраль) (2015) SATRip

0 | 8

5.01 ГБ

В этой теме нет новых непрочитанных сообщений. Право голоса. Правильный курс [18.09] (2015) SATRip

11 | 27

801.25 МБ

В этой теме нет новых непрочитанных сообщений. Право голоса. Европа, ты сошла с ума! [16.09] (2015) SATRip

15 | 1

807.51 МБ

В этой теме нет новых непрочитанных сообщений. Право голоса. Кто воюет в Сирии? Часть 1 [15.09] (2015) SATRip

23 | 2

948.9 МБ

В этой теме нет новых непрочитанных сообщений. Право голоса. Кто воюет в Сирии? Часть 2 [16.09] (2015) SATRip

23 | 3

947.47 МБ

В этой теме нет новых непрочитанных сообщений. Право голоса. Право на смерть [3 канал] [26.06] (2013) WEBRip

1 | 3

540.17 МБ




Вы не можете начинать темы
Вы не можете отвечать на сообщения
Вы не можете редактировать свои сообщения
Вы не можете удалять свои сообщения
Вы не можете добавлять вложения

Перейти:  
Для Мосгорсуда, Роскомнадзора и рекламодателей: mosgorsud-torrent[собачка]yandex.ru
 Вход
ppkBB3cker v.2 © 2008-2014 @ PPK
[ Time : 0.032s | 16 Queries | GZIP : Off ]

Торрент трекер RUTOR.IN, Не можете зайти на rutor.org? Какой новый адрес рутор? Какое зеркало рутор? Не работает rutor.org и зеркала? Тогда наш торрент специально для вас. Rutor.in неофициальное зеркало rutor. В случае если у Вас заблокирован rutor или вдруг Вы не можете на него зайти, то Вы без труда сможете скачать бесплатно и без рекламы последние новинки кино, игр, сериалов и прочего у нас, на Rutor.in. Не нужно использовать прокси, чтобы зайти на рутор, достаточно воспользоваться нашим ресурсом. Все новые фильмы, игры, сериалы, книги и музыка за 2013 и 2014 годы через торрент бесплатно. Скачивайте фильмы в хорошем качестве, игры для пк, xbox, playstation без регистрации. У нас вы найдете новые Зарубежные сериалы и Русские сериалы 2013, 2014, 2015 годов. Оставайтесь с нами, качайте любимые фильмы, игры, сериалы, книги и музыку.