img image001 image001 image001 image001 image001 image001 image001 image001 image001 image001 image001 image001 image001 image001 image001

Planets Sun Sun Sun
Статистика раздачи
Автор: Nickolas3434 | Размер: 546.7 МБ | Добавлен: 16 сен 2015
Раздают: 23    Качают: 1
Скачать торрент
Скачать торрент
Описание торрента

СообщениеДобавлено: 16 сен 2015 


Год выпуска: 2015
Страна: Россия
Студия: Телеканал "Дождь"
Жанр: Ток-Шоу
Продолжительность: 00:51:01
Перевод: Не требуется
Описание: С 20 июля каждый понедельник в 22:00 на "Дожде" в эфире новый проект Светланы Сорокиной — интеллектуальный дискуссионный клуб.
Сегодняшняя тема-Что вообще происходит с высшим образованием.Только два из десяти школьников знают, куда впадает Волга. Профессора не успевают учить из-за бумажной работы. Самое главное — не образование, а диплом.Тому ли учат и хорошо ли учат? Так ли надо учить? Что произошло с высшим образованием в России, и, главное, что с этим теперь делать? Светлана Сорокина обсудила эти вопросы с Еленой Косаревой, замдиректора Института отраслевого менеджмента РАНХиГС, Игорем Реморенко, ректором МГПУ и экс-замминистра образования, депутатом Госдумы Олегом Смолиным и директором центра социологии и института образования НИУ ВШЭ Игорем Чириковым.
Тип релиза: HDTVRip
Контейнер: AVI
Видео: DivX 720х400 16:9 1 360 Kbps 25.000 fps
Аудио: Мр3 128 Kbps 48.0 KHz 2 channels
Format : AVI
Format/Info : Audio Video Interleave
File size : 547 MiB
Duration : 51mn 1s
Overall bit rate : 1 498 Kbps
Video
ID : 0
Format : MPEG-4 Visual
Codec ID : DIV3
Codec ID/Hint : DivX 3 Low
Duration : 51mn 1s
Bit rate : 1 360 Kbps
Width : 720 pixels
Height : 400 pixels
Display aspect ratio : 16:9
Frame rate : 25.000 fps
Color space : YUV
Chroma subsampling : 4:2:0
Bit depth : 8 bits
Compression mode : Lossy
Bits/(Pixel*Frame) : 0.189
Stream size : 496 MiB (91%)
Audio
ID : 1
Format : MPEG Audio
Format version : Version 1
Format profile : Layer 3
Codec ID : 55
Codec ID/Hint : MP3
Duration : 51mn 0s
Source duration : 51mn 0s
Bit rate mode : Constant
Bit rate : 128 Kbps
Channel(s) : 1 channel
Sampling rate : 48.0 KHz
Compression mode : Lossy
Stream size : 46.7 MiB (9%)
Alignment : Aligned on interleaves
Interleave, duration : 40 ms (1.00 video frame)



   Похожие торренты   Торрент   Размер 
В этой теме нет новых непрочитанных сообщений. Высшее образование / Higher Learning (1995) WEB-DLRip | P2

32 | 11

2.73 ГБ

В этой теме нет новых непрочитанных сообщений. Высшее образование / Higher Learning (1995) WEB-DLRip | A

12 | 3

1.46 ГБ

В этой теме нет новых непрочитанных сообщений. Сорокина. Владимир и другие герои России [20.07] (2015) HDTVRip 720p

25 | 6

1.61 ГБ

В этой теме нет новых непрочитанных сообщений. Сорокина. Рост смертности [17.08] (2015) HDTVRip

110 | 2

517.59 МБ

В этой теме нет новых непрочитанных сообщений. Сорокина. Династический скандал [03.08] (2015) HDTVRip 720p

19 | 1

1.87 ГБ

В этой теме нет новых непрочитанных сообщений. Сорокина. Честно о бедности [08.08] (2015) HDTVRip 720p

93 | 4

1.82 ГБ

В этой теме нет новых непрочитанных сообщений. Высшее общество / High Society (1956) HDTVRip от NovaLan | P

21 | 10

1.73 ГБ




Вы не можете начинать темы
Вы не можете отвечать на сообщения
Вы не можете редактировать свои сообщения
Вы не можете удалять свои сообщения
Вы не можете добавлять вложения

Перейти:  
Для Мосгорсуда, Роскомнадзора и рекламодателей: mosgorsud-torrent[собачка]yandex.ru
 Вход
ppkBB3cker v.2 © 2008-2014 @ PPK
[ Time : 0.024s | 15 Queries | GZIP : Off ]

Торрент трекер RUTOR.IN, Не можете зайти на rutor.org? Какой новый адрес рутор? Какое зеркало рутор? Не работает rutor.org и зеркала? Тогда наш торрент специально для вас. Rutor.in неофициальное зеркало rutor. В случае если у Вас заблокирован rutor или вдруг Вы не можете на него зайти, то Вы без труда сможете скачать бесплатно и без рекламы последние новинки кино, игр, сериалов и прочего у нас, на Rutor.in. Не нужно использовать прокси, чтобы зайти на рутор, достаточно воспользоваться нашим ресурсом. Все новые фильмы, игры, сериалы, книги и музыка за 2013 и 2014 годы через торрент бесплатно. Скачивайте фильмы в хорошем качестве, игры для пк, xbox, playstation без регистрации. У нас вы найдете новые Зарубежные сериалы и Русские сериалы 2013, 2014, 2015 годов. Оставайтесь с нами, качайте любимые фильмы, игры, сериалы, книги и музыку.