img image001 image001 image001 image001 image001 image001 image001 image001 image001 image001 image001 image001 image001 image001 image001

Planets Sun Sun Sun
Статистика раздачи
Автор: Nickolas3434 | Размер: 382.34 МБ | Добавлен: 16 сен 2015
Раздают: 55    Качают: 3
Скачать торрент
Скачать торрент
Описание торрента

СообщениеДобавлено: 16 сен 2015 


Информация о фильме
Название: В теме (Кто он?)
Год выхода: 2015
Жанр: Документальный, политика
Режиссер: 1
В ролях: 1
О фильме:
В Москве следят за ситуацией с беженцами из стран Ближнего Востока и Африки, которые наводнили Европу. При этом ряд стран, в том числе Великобритания отказалась участвовать в схеме Евросоюза по распределению беженцев. Королевство готово разместить в стране 20 тысяч вынужденных переселенцев из Сирии. Но лишь тех, кого выберет сама. Официальную позицию раскритиковал новый лидер британских лейбористов - Джереми Корбин. Он призывает, "распахнуть объятья" для всех страждущих. Его победу уже назвали сенсационной. Впрочем, Европа с подобными сенсациями за последнее время сталкивается не впервые. Почему к власти приходят бывшие политические аутсайдеры?
Страна: Россия
Продолжительность: 00:29:07
Перевод: Не требуется
Файл
Кодек: XviD
Качество: SATRip
Видео: XviD, 1698 Кбит/с, 704x528
Звук: MP3, 2 ch, 128 Кбит/с



Общее
Полное имя : D:ФильмыKto on.avi
Формат : AVI
Формат/Информация : Audio Video Interleave
Размер файла : 382 Мбайт
Продолжительность : 29 м.
Общий поток : 1836 Кбит/сек
Программа кодирования : VirtualDubMod 1.5.10.3 | www.virtualdub-fr.org || (build 2550/release)
Библиотека кодирования : VirtualDubMod build 2550/release
Видео
Идентификатор : 0
Формат : MPEG-4 Visual
Профиль формата : Advanced Simple@L5
Параметр BVOP формата : 1
Параметр QPel формата : Нет
Параметр GMC формата : Без точки перехода
Параметр матрицы формата : Default (H.263)
Идентификатор кодека : XVID
Идентификатор кодека/Подсказка : XviD
Продолжительность : 29 м.
Битрейт : 1698 Кбит/сек
Ширина : 704 пикселя
Высота : 528 пикселей
Соотношение сторон : 4:3
Частота кадров : 25,000 кадров/сек
Цветовое пространство : YUV
Субдискретизация насыщенности : 4:2:0
Битовая глубина : 8 бит
Тип развёртки : Прогрессивная
Метод сжатия : С потерями
Бит/(Пиксели*Кадры) : 0.183
Размер потока : 354 Мбайт (92%)
Библиотека кодирования : XviD 1.2.1 (UTC 2008-12-04)
Аудио
Идентификатор : 1
Формат : MPEG Audio
Версия формата : Version 1
Профиль формата : Layer 3
Идентификатор кодека : 55
Идентификатор кодека/Подсказка : MP3
Продолжительность : 29 м.
Вид битрейта : Постоянный
Битрейт : 128 Кбит/сек
Каналы : 2 канала
Частота : 48,0 КГц
Метод сжатия : С потерями
Размер потока : 26,7 Мбайт (7%)
Выравнивание : Соединение по промежуткам
Продолжительность промежутка : 40 мс. (1,00 видеокадр)
Время предзагрузки промежутка : 504 мс.
Библиотека кодирования : LAME3.99r
Настройки программы : -m s -V 4 -q 2 -lowpass 17 -b 128



   Похожие торренты   Торрент   Размер 
В этой теме нет новых непрочитанных сообщений. В теме. Трамп-пам-пам (2015) SATRip

28 | 1

382.23 МБ

В этой теме нет новых непрочитанных сообщений. В теме. Пятикратный президент (2015) SATRip

12 | 64

384.14 МБ

В этой теме нет новых непрочитанных сообщений. В теме. Маршрут построен (2015) SATRip

26 | 1

383.39 МБ

В этой теме нет новых непрочитанных сообщений. В теме. Граница на замке (2015) SATRip

37 | 1

383.29 МБ

В этой теме нет новых непрочитанных сообщений. В теме. Новая победа Ципраса (2015) SATRip

8 | 0

384.14 МБ

В этой теме нет новых непрочитанных сообщений. Футбол. Евро-2016. Быть в теме [26.05] (2016) HDTVRip 720p | 50 fps

21 | 3

694.92 МБ

В этой теме нет новых непрочитанных сообщений. В теме. О переговорах еврокомиссии и «Газпрома» (Эфир от 26.01.2016) (ТК "МОСКВА 24") [2016, документальный, WEBRip]

29 | 5

117.36 МБ




Вы не можете начинать темы
Вы не можете отвечать на сообщения
Вы не можете редактировать свои сообщения
Вы не можете удалять свои сообщения
Вы не можете добавлять вложения

Перейти:  
Для Мосгорсуда, Роскомнадзора и рекламодателей: mosgorsud-torrent[собачка]yandex.ru
 Вход
ppkBB3cker v.2 © 2008-2014 @ PPK
[ Time : 0.022s | 14 Queries | GZIP : Off ]

Торрент трекер RUTOR.IN, Не можете зайти на rutor.org? Какой новый адрес рутор? Какое зеркало рутор? Не работает rutor.org и зеркала? Тогда наш торрент специально для вас. Rutor.in неофициальное зеркало rutor. В случае если у Вас заблокирован rutor или вдруг Вы не можете на него зайти, то Вы без труда сможете скачать бесплатно и без рекламы последние новинки кино, игр, сериалов и прочего у нас, на Rutor.in. Не нужно использовать прокси, чтобы зайти на рутор, достаточно воспользоваться нашим ресурсом. Все новые фильмы, игры, сериалы, книги и музыка за 2013 и 2014 годы через торрент бесплатно. Скачивайте фильмы в хорошем качестве, игры для пк, xbox, playstation без регистрации. У нас вы найдете новые Зарубежные сериалы и Русские сериалы 2013, 2014, 2015 годов. Оставайтесь с нами, качайте любимые фильмы, игры, сериалы, книги и музыку.