img image001 image001 image001 image001 image001 image001 image001 image001 image001 image001 image001 image001 image001 image001 image001

Planets Sun Sun Sun
Статистика раздачи
Автор: Nickolas3434 | Размер: 383.39 МБ | Добавлен: 18 сен 2015
Раздают: 26    Качают: 1
Скачать торрент
Скачать торрент
Описание торрента

СообщениеДобавлено: 18 сен 2015 


Информация о фильме
Название: В теме
Год выхода: 2015
Жанр: Документальный, политика
О фильме:
Россия утвердила план взаимодействия со странами Шанхайской организации сотрудничества. Эксперты отмечают, что сближение нашей страны с восточными державами произошло на фоне резкого охлаждения отношений с Европой, которая развязала санкционную войну. С кем же России по пути? Об этом расскажет ведущий программы "В теме" Олег Матвейчук.
Страна: Россия
Продолжительность: 00:29:07
Перевод: Не требуется
Файл
Кодек: XviD
Качество: SATRip
Видео: XviD, 1698 Кбит/с, 704x528
Звук: MP3, 2 ch, 128 Кбит/с



Общее
Полное имя : D:ФильмыMarshrut.postroen.avi
Формат : AVI
Формат/Информация : Audio Video Interleave
Размер файла : 383 Мбайт
Продолжительность : 29 м.
Общий поток : 1835 Кбит/сек
Программа кодирования : Lavf56.25.101
Библиотека кодирования : VirtualDub build 35491/release
Видео
Идентификатор : 0
Формат : xvid
Идентификатор кодека : xvid
Продолжительность : 29 м.
Битрейт : 1695 Кбит/сек
Ширина : 704 пикселя
Высота : 528 пикселей
Соотношение сторон : 4:3
Частота кадров : 25,000 кадров/сек
Бит/(Пиксели*Кадры) : 0.182
Размер потока : 354 Мбайт (92%)
Аудио
Идентификатор : 1
Формат : MPEG Audio
Версия формата : Version 1
Профиль формата : Layer 3
Режим : Joint stereo
Расширение режима : MS Stereo
Идентификатор кодека : 55
Идентификатор кодека/Подсказка : MP3
Продолжительность : 29 м.
Вид битрейта : Постоянный
Битрейт : 128 Кбит/сек
Каналы : 2 канала
Частота : 44,1 КГц
Метод сжатия : С потерями
Размер потока : 26,7 Мбайт (7%)
Выравнивание : Соединение по промежуткам
Продолжительность промежутка : 26 мс. (0,65 видеокадр)
Время предзагрузки промежутка : 522 мс.
Библиотека кодирования : LAME3.99.5



   Похожие торренты   Торрент   Размер 
В этой теме нет новых непрочитанных сообщений. Маршрут построен. Мальта [от 17.07] (2016) SATRip

4 | 2

369.7 МБ

В этой теме нет новых непрочитанных сообщений. Маршрут построен (2015) WEB-DLRip

6020 | 159

1.37 ГБ

В этой теме нет новых непрочитанных сообщений. Маршрут построен (2015) WEB-DL 1080p

372 | 9

2.51 ГБ

В этой теме нет новых непрочитанных сообщений. Маршрут построен (2016) WEB-DL 720р

738 | 13

2.4 ГБ

В этой теме нет новых непрочитанных сообщений. Маршрут построен (2016) WEB-DLRip-AVC от New-Team

42 | 0

1.37 ГБ

В этой теме нет новых непрочитанных сообщений. Маршрут построен (2016) WEB-DLRip от MegaPeer

97 | 10

742.29 МБ

В этой теме нет новых непрочитанных сообщений. Маршрут построен (2016) WEB-DLRip-AVC от ExKinoRay

50 | 1

1.6 ГБ




Вы не можете начинать темы
Вы не можете отвечать на сообщения
Вы не можете редактировать свои сообщения
Вы не можете удалять свои сообщения
Вы не можете добавлять вложения

Перейти:  
Для Мосгорсуда, Роскомнадзора и рекламодателей: mosgorsud-torrent[собачка]yandex.ru
 Вход
ppkBB3cker v.2 © 2008-2014 @ PPK
[ Time : 0.040s | 15 Queries | GZIP : Off ]

cron