img image001 image001 image001 image001 image001 image001 image001 image001 image001 image001 image001 image001 image001 image001 image001

Planets Sun Sun Sun
Статистика раздачи
Автор: Nickolas3434 | Размер: 382.23 МБ | Добавлен: 19 сен 2015
Раздают: 28    Качают: 1
Скачать торрент
Скачать торрент
Описание торрента

СообщениеДобавлено: 19 сен 2015 


Информация о фильме
Название: В теме
Год выхода: 2015
Жанр: Документальный, политика
О фильме:
Кандидат в президенты США Дональд Трамп уверен, что смог бы найти общий язык с Москвой и лично с Владимиром Путиным по всем проблемным вопросам. Прежде всего по Сирии и Украине. И с немалой долей вероятности у Трампа будет такая возможность - миллиардер пользуется популярностью у республиканцев. Каковы шансы того, что эпатажный богач станет президентом США? И насколько вероятно, что Штаты перейдут от угроз и санкционной войны к взаимовыгодному миру?
Страна: Россия
Продолжительность: 00:29:07
Перевод: Не требуется
Файл
Кодек: XviD
Качество: SATRip
Видео: XviD, 1698 Кбит/с, 704x528
Звук: MP3, 2 ch, 128 Кбит/с


Общее
Полное имя : D:ФильмыMarshrut.postroen.avi
Формат : AVI
Формат/Информация : Audio Video Interleave
Размер файла : 383 Мбайт
Продолжительность : 29 м.
Общий поток : 1835 Кбит/сек
Программа кодирования : Lavf56.25.101
Библиотека кодирования : VirtualDub build 35491/release
Видео
Идентификатор : 0
Формат : xvid
Идентификатор кодека : xvid
Продолжительность : 29 м.
Битрейт : 1695 Кбит/сек
Ширина : 704 пикселя
Высота : 528 пикселей
Соотношение сторон : 4:3
Частота кадров : 25,000 кадров/сек
Бит/(Пиксели*Кадры) : 0.182
Размер потока : 354 Мбайт (92%)
Аудио
Идентификатор : 1
Формат : MPEG Audio
Версия формата : Version 1
Профиль формата : Layer 3
Режим : Joint stereo
Расширение режима : MS Stereo
Идентификатор кодека : 55
Идентификатор кодека/Подсказка : MP3
Продолжительность : 29 м.
Вид битрейта : Постоянный
Битрейт : 128 Кбит/сек
Каналы : 2 канала
Частота : 44,1 КГц
Метод сжатия : С потерями
Размер потока : 26,7 Мбайт (7%)
Выравнивание : Соединение по промежуткам
Продолжительность промежутка : 26 мс. (0,65 видеокадр)
Время предзагрузки промежутка : 522 мс.
Библиотека кодирования : LAME3.99.5



   Похожие торренты   Торрент   Размер 
В этой теме нет новых непрочитанных сообщений. В теме (Кто он?) (2015) SATRip

55 | 3

382.34 МБ

В этой теме нет новых непрочитанных сообщений. В теме. Маршрут построен (2015) SATRip

26 | 1

383.39 МБ

В этой теме нет новых непрочитанных сообщений. В теме. Пятикратный президент (2015) SATRip

12 | 64

384.14 МБ

В этой теме нет новых непрочитанных сообщений. В теме. Граница на замке (2015) SATRip

37 | 1

383.29 МБ

В этой теме нет новых непрочитанных сообщений. В теме. Новая победа Ципраса (2015) SATRip

8 | 0

384.14 МБ

В этой теме нет новых непрочитанных сообщений. Право голоса. Мир – дружба – Трамп? [эфир от 18.11] (2016) SATRip от Рипер АМ

0 | 0

748.74 МБ

В этой теме нет новых непрочитанных сообщений. Дональд Трамп - Подборка книг (2004 - 2015) FB2

97 | 2

12.83 МБ




Вы не можете начинать темы
Вы не можете отвечать на сообщения
Вы не можете редактировать свои сообщения
Вы не можете удалять свои сообщения
Вы не можете добавлять вложения

Перейти:  
Для Мосгорсуда, Роскомнадзора и рекламодателей: mosgorsud-torrent[собачка]yandex.ru
 Вход
ppkBB3cker v.2 © 2008-2014 @ PPK
[ Time : 6.692s | 14 Queries | GZIP : Off ]

Торрент трекер RUTOR.IN, Не можете зайти на rutor.org? Какой новый адрес рутор? Какое зеркало рутор? Не работает rutor.org и зеркала? Тогда наш торрент специально для вас. Rutor.in неофициальное зеркало rutor. В случае если у Вас заблокирован rutor или вдруг Вы не можете на него зайти, то Вы без труда сможете скачать бесплатно и без рекламы последние новинки кино, игр, сериалов и прочего у нас, на Rutor.in. Не нужно использовать прокси, чтобы зайти на рутор, достаточно воспользоваться нашим ресурсом. Все новые фильмы, игры, сериалы, книги и музыка за 2013 и 2014 годы через торрент бесплатно. Скачивайте фильмы в хорошем качестве, игры для пк, xbox, playstation без регистрации. У нас вы найдете новые Зарубежные сериалы и Русские сериалы 2013, 2014, 2015 годов. Оставайтесь с нами, качайте любимые фильмы, игры, сериалы, книги и музыку.