img image001 image001 image001 image001 image001 image001 image001 image001 image001 image001 image001 image001 image001 image001 image001

Planets Sun Sun Sun
Статистика раздачи
Автор: Nickolas3434 | Размер: 426.25 МБ | Добавлен: 19 сен 2015
Раздают: 4    Качают: 0
Скачать торрент
Скачать торрент
Описание торрента

СообщениеДобавлено: 19 сен 2015 


Информация о фильме
Название: Моя жизнь сделана в России
Год выхода: 2015
Жанр: Документальный, экономика, исследование
Ведущий Михаил Пореченков
О фильме:
Новый проект о том, чем может гордиться вся страна. Какие отечественные товары сделаны на самом высоком уровне? Кто, где и в каких условиях создает то, что радует нас ценой и качеством? Ответы на эти вопросы даст ведущий Михаил Пореченков. Каждую неделю Михаил будет исследовать российский потребительский рынок и знакомить зрителей с самыми интересными примерами производства по всей стране. Маршруты поиска увлекательны и непредсказуемы. Зрители получат объективную и полную информацию о том, как делается полезная зубная паста, где изготавливается натуральная косметика, сколько стоит отдых в России, кто ловит самую вкусную рыбу, а также узнают ответы на многие другие вопросы, волнующие каждого потребителя. Вместе с Михаилом Пореченковым исследовать и оценивать российские товары по всей стране будут гости проекта - известные актеры, музыканты, телеведущие и спортсмены: Антон Макарский, Николай Валуев, Мария Шукшина, Раиса Рязанова, Юрий Стоянов, Александр Пушной, Алена Заварзина и Вик Вайлд.
Страна: Россия, ООО «КБ продакшн», ВГТРК
Продолжительность: ~ 00:30:00
Перевод: Не требуется
Файл
Кодек: XviD
Качество: SATRip
Видео: 720x400 25.00fps 1800kbps
Звук: 48000Hz stereo 192kbps


Общее
Полное имя : D:ФильмыMoya.Zhizn.Sdelana.v.Rossii.19.09.2015.SATRip.avi
Формат : AVI
Формат/Информация : Audio Video Interleave
Размер файла : 426 Мбайт
Продолжительность : 29 м.
Общий поток : 2002 Кбит/сек
Программа кодирования : VirtualDubMod 1.5.10.3 | www.virtualdub-fr.org || (build 2550/release)
Библиотека кодирования : VirtualDubMod build 2550/release
Видео
Идентификатор : 0
Формат : MPEG-4 Visual
Профиль формата : Advanced Simple@L5
Параметр BVOP формата : 2
Параметр QPel формата : Нет
Параметр GMC формата : Без точки перехода
Параметр матрицы формата : Default (H.263)
Идентификатор кодека : XVID
Идентификатор кодека/Подсказка : XviD
Продолжительность : 29 м.
Битрейт : 1800 Кбит/сек
Ширина : 720 пикселей
Высота : 400 пикселей
Соотношение сторон : 16:9
Частота кадров : 25,000 кадров/сек
Цветовое пространство : YUV
Субдискретизация насыщенности : 4:2:0
Битовая глубина : 8 бит
Тип развёртки : Прогрессивная
Метод сжатия : С потерями
Бит/(Пиксели*Кадры) : 0.250
Размер потока : 383 Мбайт (90%)
Библиотека кодирования : XviD 1.2.1 (UTC 2008-12-04)
Аудио
Идентификатор : 1
Формат : AC-3
Формат/Информация : Audio Coding 3
Расширение режима : CM (complete main)
Параметр Endianness формата : Big
Идентификатор кодека : 2000
Продолжительность : 29 м.
Вид битрейта : Постоянный
Битрейт : 192 Кбит/сек
Каналы : 2 канала
Расположение каналов : Front: L R
Частота : 48,0 КГц
Метод сжатия : С потерями
Размер потока : 40,9 Мбайт (10%)
Выравнивание : Разделение по промежуткам
Продолжительность промежутка : 40 мс. (1,00 видеокадр)
Время предзагрузки промежутка : 500 мс.

Релиз от:



   Похожие торренты   Торрент   Размер 
В этой теме нет новых непрочитанных сообщений. Моя жизнь сделана в России [02] (2015) SATRip

18 | 0

429.48 МБ

В этой теме нет новых непрочитанных сообщений. Моя жизнь сделана в России [01] (2015) HDTVRip от Files-x

101 | 10

756.26 МБ

В этой теме нет новых непрочитанных сообщений. Моя жизнь сделана в России [01] (2015) HDTVRip от Files-x

92 | 6

377.95 МБ

В этой теме нет новых непрочитанных сообщений. Моя жизнь сделана в России [01] (2015) HDTVRip от Files-x

24 | 0

1.11 ГБ

В этой теме нет новых непрочитанных сообщений. Среда обитания. Из чего сделана еда [эфир от 11.07] (2012) SATRip

9 | 2

583.85 МБ

В этой теме нет новых непрочитанных сообщений. Оксана Усольцева (ред.) - 1000 лучших мест России, которые нужно увидеть за свою жизнь (2015) PDF

171 | 12

148.04 МБ

В этой теме нет новых непрочитанных сообщений. Вадим Усланов - Ты сделана из огня... (1998) APE

0 | 0

349 МБ




Вы не можете начинать темы
Вы не можете отвечать на сообщения
Вы не можете редактировать свои сообщения
Вы не можете удалять свои сообщения
Вы не можете добавлять вложения

Перейти:  
Для Мосгорсуда, Роскомнадзора и рекламодателей: mosgorsud-torrent[собачка]yandex.ru
 Вход
ppkBB3cker v.2 © 2008-2014 @ PPK
[ Time : 0.065s | 15 Queries | GZIP : Off ]

cron