img image001 image001 image001 image001 image001 image001 image001 image001 image001 image001 image001 image001 image001 image001 image001

Planets Sun Sun Sun
Статистика раздачи
Автор: Nickolas3434 | Размер: 661.19 МБ | Добавлен: 19 сен 2015
Раздают: 7    Качают: 1
Скачать торрент
Скачать торрент
Описание торрента

СообщениеДобавлено: 19 сен 2015 


Информация о фильме
Название: Большая маленькая звезда
Год выхода: 2015
Режиссер: Герман Ефимов
Ведущий: Николай Басков
О фильме:
Узнайте все секреты своих любимых знаменитостей… от их детей! Этой осенью телеканал СТС запускает уникальный формат развлекательного шоу для всей семьи с ведущим Николаем Басковым. С помощью Николая зрители узнают массу интересных подробностей о любимых актерах, певцах и артистах — как они проводят вечера дома, что едят на завтрак, в чем спят, поют ли песни в душе и чего больше всего стыдятся.
Продолжительность: ~ 00:44:00
Перевод: Не требуется
Файл
Кодек: XviD
Качество: SATRip
Видео: 720x400, 25 fps, XviD, ~1800 kbps avg
Звук: 48 kHz, MPEG Layer 3, 2 ch, ~128.00 kbps avg

Общее
Полное имя : D:ФильмыBolshaja malenkaja zvezda.02.SATRip.avi
Формат : AVI
Формат/Информация : Audio Video Interleave
Размер файла : 661 Мбайт
Продолжительность : 47 м.
Общий поток : 1938 Кбит/сек
Программа кодирования : VirtualDubMod 1.5.10.3 | www.virtualdub-fr.org || (build 2550/release)
Библиотека кодирования : VirtualDubMod build 2550/release
Видео
Идентификатор : 0
Формат : MPEG-4 Visual
Профиль формата : Advanced Simple@L5
Параметр BVOP формата : 2
Параметр QPel формата : Нет
Параметр GMC формата : Без точки перехода
Параметр матрицы формата : Default (MPEG)
Идентификатор кодека : XVID
Идентификатор кодека/Подсказка : XviD
Продолжительность : 47 м.
Битрейт : 1800 Кбит/сек
Ширина : 720 пикселей
Высота : 400 пикселей
Соотношение сторон : 16:9
Частота кадров : 25,000 кадров/сек
Цветовое пространство : YUV
Субдискретизация насыщенности : 4:2:0
Битовая глубина : 8 бит
Тип развёртки : Прогрессивная
Метод сжатия : С потерями
Бит/(Пиксели*Кадры) : 0.250
Размер потока : 614 Мбайт (93%)
Библиотека кодирования : XviD 1.2.1 (UTC 2008-12-04)
Аудио
Идентификатор : 1
Формат : MPEG Audio
Версия формата : Version 1
Профиль формата : Layer 3
Идентификатор кодека : 55
Идентификатор кодека/Подсказка : MP3
Продолжительность : 47 м.
Вид битрейта : Постоянный
Битрейт : 128 Кбит/сек
Каналы : 2 канала
Частота : 48,0 КГц
Метод сжатия : С потерями
Размер потока : 43,7 Мбайт (7%)
Выравнивание : Соединение по промежуткам
Продолжительность промежутка : 40 мс. (1,00 видеокадр)
Время предзагрузки промежутка : 504 мс.
Библиотека кодирования : LAME3.99r
Настройки программы : -m s -V 4 -q 2 -lowpass 17 -b 128

Релиз от:



   Похожие торренты   Торрент   Размер 
В этой теме нет новых непрочитанных сообщений. Политический детектив (ТК Звезда) / (1-33 выпуски) (ТК Звезда) [(Эфир от 20.08.2017) 2016-2017, документальный, SATRip]

4 | 15

8.88 ГБ

В этой теме нет новых непрочитанных сообщений. Политический детектив (ТК Звезда) / (1-31 выпуски) (ТК Звезда) [(Эфир от 25.06.2017) 2016-2017, документальный, SATRip]

4 | 0

8.05 ГБ

В этой теме нет новых непрочитанных сообщений. Политический детектив (ТК Звезда) / (1-29 выпуски) (ТК Звезда) [(Эфир от 11.06.2017) 2016-2017, документальный, SATRip]

0 | 0

7.78 ГБ

В этой теме нет новых непрочитанных сообщений. Политический детектив (ТК Звезда) / (1-32 выпуски) (ТК Звезда) [(Эфир от 06.08.2017) 2016-2017, документальный, SATRip]

0 | 8

8.61 ГБ

В этой теме нет новых непрочитанных сообщений. Большая маленькая звезда [01] (2015) SATRip

22 | 2

608.17 МБ

В этой теме нет новых непрочитанных сообщений. Большая маленькая звезда [03] (2015) SATRip

11 | 5

661.23 МБ

В этой теме нет новых непрочитанных сообщений. Большая маленькая звезда [04] (2015) SATRip

21 | 1

648 МБ




Вы не можете начинать темы
Вы не можете отвечать на сообщения
Вы не можете редактировать свои сообщения
Вы не можете удалять свои сообщения
Вы не можете добавлять вложения

Перейти:  
Для Мосгорсуда, Роскомнадзора и рекламодателей: mosgorsud-torrent[собачка]yandex.ru
 Вход
ppkBB3cker v.2 © 2008-2014 @ PPK
[ Time : 0.049s | 15 Queries | GZIP : Off ]

Торрент трекер RUTOR.IN, Не можете зайти на rutor.org? Какой новый адрес рутор? Какое зеркало рутор? Не работает rutor.org и зеркала? Тогда наш торрент специально для вас. Rutor.in неофициальное зеркало rutor. В случае если у Вас заблокирован rutor или вдруг Вы не можете на него зайти, то Вы без труда сможете скачать бесплатно и без рекламы последние новинки кино, игр, сериалов и прочего у нас, на Rutor.in. Не нужно использовать прокси, чтобы зайти на рутор, достаточно воспользоваться нашим ресурсом. Все новые фильмы, игры, сериалы, книги и музыка за 2013 и 2014 годы через торрент бесплатно. Скачивайте фильмы в хорошем качестве, игры для пк, xbox, playstation без регистрации. У нас вы найдете новые Зарубежные сериалы и Русские сериалы 2013, 2014, 2015 годов. Оставайтесь с нами, качайте любимые фильмы, игры, сериалы, книги и музыку.
cron