img image001 image001 image001 image001 image001 image001 image001 image001 image001 image001 image001 image001 image001 image001 image001

Planets Sun Sun Sun
Статистика раздачи
Автор: Nickolas3434 | Размер: 715.61 МБ | Добавлен: 20 сен 2015
Раздают: 16    Качают: 0
Скачать торрент
Скачать торрент
Описание торрента

СообщениеДобавлено: 20 сен 2015 


Информация о фильме
Название: Вера Васильева - Нечаянная радость
Год выхода: 2015
Жанр: Документальный
О фильме:
Вера Кузьминична Васильева, удивительная актриса и потрясающая женщина, в этом году отмечает 90-летие. О себе она говорит так: "Меня не одолели ни возраст, ни усталость, не иссушили разочарование и
Выпущено: Россия, Телекомпания "Останкино"
Продолжительность: ~00:50:00
Перевод: Не требуется
Файл
Кодек: AC3
Качество: SATRip
Видео: 704x448 25.00fps 1800kbps
Звук: 48000Hz stereo 192kbps


Общее
Полное имя : D:ФильмыVera.Vasilyeva-Nechayannaya.Radost.SATRip.avi
Формат : AVI
Формат/Информация : Audio Video Interleave
Размер файла : 716 Мбайт
Продолжительность : 49 м.
Общий поток : 2002 Кбит/сек
Программа кодирования : VirtualDubMod 1.5.10.3 | www.virtualdub-fr.org || (build 2550/release)
Библиотека кодирования : VirtualDubMod build 2550/release
Видео
Идентификатор : 0
Формат : MPEG-4 Visual
Профиль формата : Advanced Simple@L5
Параметр BVOP формата : 2
Параметр QPel формата : Нет
Параметр GMC формата : Без точки перехода
Параметр матрицы формата : Default (H.263)
Идентификатор кодека : XVID
Идентификатор кодека/Подсказка : XviD
Продолжительность : 49 м.
Битрейт : 1800 Кбит/сек
Ширина : 704 пикселя
Высота : 448 пикселей
Соотношение сторон : 16:10
Частота кадров : 25,000 кадров/сек
Цветовое пространство : YUV
Субдискретизация насыщенности : 4:2:0
Битовая глубина : 8 бит
Тип развёртки : Прогрессивная
Метод сжатия : С потерями
Бит/(Пиксели*Кадры) : 0.228
Размер потока : 643 Мбайт (90%)
Библиотека кодирования : XviD 1.2.1 (UTC 2008-12-04)
Аудио
Идентификатор : 1
Формат : AC-3
Формат/Информация : Audio Coding 3
Расширение режима : CM (complete main)
Параметр Endianness формата : Big
Идентификатор кодека : 2000
Продолжительность : 49 м.
Вид битрейта : Постоянный
Битрейт : 192 Кбит/сек
Каналы : 2 канала
Расположение каналов : Front: L R
Частота : 48,0 КГц
Метод сжатия : С потерями
Размер потока : 68,6 Мбайт (10%)
Выравнивание : Разделение по промежуткам
Продолжительность промежутка : 40 мс. (1,00 видеокадр)
Время предзагрузки промежутка : 500 мс.

Релиз от:



   Похожие торренты   Торрент   Размер 
В этой теме нет новых непрочитанных сообщений. Нечаянная радость [01-04 из 04] (2012) SATRip от КинозалSAT

21 | 6

2.15 ГБ

В этой теме нет новых непрочитанных сообщений. Нечаянная радость [01-04 из 04] (2012) IPTVRip от Files-x

0 | 0

2.15 ГБ

В этой теме нет новых непрочитанных сообщений. Нечаянная радость [01-04 из 04] (2006) DVDRip от Odyzic и MyWorldFilm

6 | 5

1.96 ГБ

В этой теме нет новых непрочитанных сообщений. Бессмертник. Вера и правда [S03] (2015) SATRip-AVC от Files-x

83 | 20

10.5 ГБ

В этой теме нет новых непрочитанных сообщений. Бессмертник. Вера и правда [03х01 из 24] (2015) SATRip от Files-x

81 | 17

1.08 ГБ

В этой теме нет новых непрочитанных сообщений. Бессмертник. Вера и правда [03х01 из 24] (2015) SATRip от Files-x

122 | 71

1.61 ГБ

В этой теме нет новых непрочитанных сообщений. Бессмертник. Вера и правда [03х01 из 24] (2015) SATRip от Files-x

59 | 2

550.55 МБ




Вы не можете начинать темы
Вы не можете отвечать на сообщения
Вы не можете редактировать свои сообщения
Вы не можете удалять свои сообщения
Вы не можете добавлять вложения

Перейти:  
Для Мосгорсуда, Роскомнадзора и рекламодателей: mosgorsud-torrent[собачка]yandex.ru
 Вход
ppkBB3cker v.2 © 2008-2014 @ PPK
[ Time : 0.029s | 14 Queries | GZIP : Off ]

Торрент трекер RUTOR.IN, Не можете зайти на rutor.org? Какой новый адрес рутор? Какое зеркало рутор? Не работает rutor.org и зеркала? Тогда наш торрент специально для вас. Rutor.in неофициальное зеркало rutor. В случае если у Вас заблокирован rutor или вдруг Вы не можете на него зайти, то Вы без труда сможете скачать бесплатно и без рекламы последние новинки кино, игр, сериалов и прочего у нас, на Rutor.in. Не нужно использовать прокси, чтобы зайти на рутор, достаточно воспользоваться нашим ресурсом. Все новые фильмы, игры, сериалы, книги и музыка за 2013 и 2014 годы через торрент бесплатно. Скачивайте фильмы в хорошем качестве, игры для пк, xbox, playstation без регистрации. У нас вы найдете новые Зарубежные сериалы и Русские сериалы 2013, 2014, 2015 годов. Оставайтесь с нами, качайте любимые фильмы, игры, сериалы, книги и музыку.