img image001 image001 image001 image001 image001 image001 image001 image001 image001 image001 image001 image001 image001 image001 image001

Planets Sun Sun Sun
Статистика раздачи
Автор: Nickolas3434 | Размер: 545.76 МБ | Добавлен: 19 сен 2015
Раздают: 440    Качают: 19
Скачать торрент
Скачать торрент
Описание торрента

СообщениеДобавлено: 19 сен 2015 


Информация о фильме
Название: Вечно молодой. Две жизни Сергея Бодрова
Год выхода: 2015
Жанр: Документальный
О фильме:
Создатели ленты попытались выяснить, каким же человеком он был. В фильме будут показаны уникальные факты из жизни и откровения близких друзей кинозвезды.
Свитер, наушники, рубленные фразы. Большинству россиян он запомнился именно таким. Задумчивым, молчаливым и абсолютно своим. Данила Багров говорит мало и всегда по делу. Его простая философия близка и понятна каждому, кто смотрел этот легендарный фильм.
Производство: «РЕН-ТВ»
Продолжительность: 00:39:22
Перевод: Не требуется
Файл
Кодек: XviD
Качество: SATRip
Видео: 704x448, 25 fps, XviD, ~1800 kbps avg
Звук: 48 kHz, MPEG Layer 3, 2 ch, ~128.00 kbps avg

Общее
Полное имя : D:ФильмыVechno molodoj.Dve zhizni Sergeja Bodrova.19.09.2015.SATRip.avi
Формат : AVI
Формат/Информация : Audio Video Interleave
Размер файла : 546 Мбайт
Продолжительность : 39 м.
Общий поток : 1938 Кбит/сек
Программа кодирования : VirtualDubMod 1.5.10.3 | www.virtualdub-fr.org || (build 2550/release)
Библиотека кодирования : VirtualDubMod build 2550/release
Видео
Идентификатор : 0
Формат : MPEG-4 Visual
Профиль формата : Advanced Simple@L5
Параметр BVOP формата : 2
Параметр QPel формата : Нет
Параметр GMC формата : Без точки перехода
Параметр матрицы формата : Default (MPEG)
Идентификатор кодека : XVID
Идентификатор кодека/Подсказка : XviD
Продолжительность : 39 м.
Битрейт : 1800 Кбит/сек
Ширина : 704 пикселя
Высота : 448 пикселей
Соотношение сторон : 16:10
Частота кадров : 25,000 кадров/сек
Цветовое пространство : YUV
Субдискретизация насыщенности : 4:2:0
Битовая глубина : 8 бит
Тип развёртки : Прогрессивная
Метод сжатия : С потерями
Бит/(Пиксели*Кадры) : 0.228
Размер потока : 507 Мбайт (93%)
Библиотека кодирования : XviD 1.2.1 (UTC 2008-12-04)
Аудио
Идентификатор : 1
Формат : MPEG Audio
Версия формата : Version 1
Профиль формата : Layer 3
Идентификатор кодека : 55
Идентификатор кодека/Подсказка : MP3
Продолжительность : 39 м.
Вид битрейта : Постоянный
Битрейт : 128 Кбит/сек
Каналы : 2 канала
Частота : 48,0 КГц
Метод сжатия : С потерями
Размер потока : 36,0 Мбайт (7%)
Выравнивание : Соединение по промежуткам
Продолжительность промежутка : 40 мс. (1,00 видеокадр)
Время предзагрузки промежутка : 504 мс.
Библиотека кодирования : LAME3.99r
Настройки программы : -m s -V 4 -q 2 -lowpass 17 -b 128

Релиз от:



   Похожие торренты   Торрент   Размер 
В этой теме нет новых непрочитанных сообщений. Пусть говорят - Михаил Ефремов. Вечно молодой [эфир от 21.11] (2013) SATRip

0 | 3

607.37 МБ

В этой теме нет новых непрочитанных сообщений. Вечно молодой / Rock'n Roll (2017) HDRip | L

1269 | 67

1.37 ГБ

В этой теме нет новых непрочитанных сообщений. Вечно молодой / Forever Young (1992) HDTVRip 720p

121 | 8

5.05 ГБ

В этой теме нет новых непрочитанных сообщений. Вечно молодой / Forever Young (1992) HDTVRip от NovaLan

28 | 23

2.26 ГБ

В этой теме нет новых непрочитанных сообщений. Вечно молодой / Rock'n Roll (2017) BDRip 720p | L

385 | 143

4.74 ГБ

В этой теме нет новых непрочитанных сообщений. Вечно молодой / Rock'n Roll (2017) BDRip 1080p | L

232 | 4

9.05 ГБ

В этой теме нет новых непрочитанных сообщений. Вечно молодой / Rock'n Roll (2017) HDRip от MegaPeer | iTunes

2511 | 385

1.46 ГБ




Вы не можете начинать темы
Вы не можете отвечать на сообщения
Вы не можете редактировать свои сообщения
Вы не можете удалять свои сообщения
Вы не можете добавлять вложения

Перейти:  
Для Мосгорсуда, Роскомнадзора и рекламодателей: mosgorsud-torrent[собачка]yandex.ru
 Вход
ppkBB3cker v.2 © 2008-2014 @ PPK
[ Time : 0.023s | 15 Queries | GZIP : Off ]

Торрент трекер RUTOR.IN, Не можете зайти на rutor.org? Какой новый адрес рутор? Какое зеркало рутор? Не работает rutor.org и зеркала? Тогда наш торрент специально для вас. Rutor.in неофициальное зеркало rutor. В случае если у Вас заблокирован rutor или вдруг Вы не можете на него зайти, то Вы без труда сможете скачать бесплатно и без рекламы последние новинки кино, игр, сериалов и прочего у нас, на Rutor.in. Не нужно использовать прокси, чтобы зайти на рутор, достаточно воспользоваться нашим ресурсом. Все новые фильмы, игры, сериалы, книги и музыка за 2013 и 2014 годы через торрент бесплатно. Скачивайте фильмы в хорошем качестве, игры для пк, xbox, playstation без регистрации. У нас вы найдете новые Зарубежные сериалы и Русские сериалы 2013, 2014, 2015 годов. Оставайтесь с нами, качайте любимые фильмы, игры, сериалы, книги и музыку.
cron