img image001 image001 image001 image001 image001 image001 image001 image001 image001 image001 image001 image001 image001 image001 image001

Planets Sun Sun Sun
Статистика раздачи
Автор: Nickolas3434 | Размер: 785.15 МБ | Добавлен: 20 сен 2015
Раздают: 10    Качают: 0
Скачать торрент
Скачать торрент
Описание торрента

СообщениеДобавлено: 20 сен 2015 


Информация о фильме
Название: Знание-сила
Год выхода: 2015
Жанр: Тв-Шоу
Ведущий: Дмитрий Киселев
О фильме:
Популярный ведущий телеканала "Россия" Дмитрий Киселев выступит в новом амплуа.
В борьбе за миллион рублей его гостям предстоит ответить на вопросы из разных областей науки, искусства, истории и кино.
В первых выпусках телевикторины примут участие Анатолий Вассерман, Владимир Меньшов и другие.
Продолжительность: ~00:50:00
Перевод: Не требуется
Файл
Кодек: XviD
Качество: SATRip
Видео: 720x400 25.00fps 1800kbps
Звук: 48000Hz stereo 192kbps

Общее
Полное имя : D:ФильмыZnanie-Sila.19.09.2015.SATRip.avi
Формат : AVI
Формат/Информация : Audio Video Interleave
Размер файла : 785 Мбайт
Продолжительность : 54 м.
Общий поток : 2002 Кбит/сек
Программа кодирования : VirtualDubMod 1.5.10.3 | www.virtualdub-fr.org || (build 2550/release)
Библиотека кодирования : VirtualDub build 35491/release
Видео
Идентификатор : 0
Формат : MPEG-4 Visual
Профиль формата : Advanced Simple@L5
Параметр BVOP формата : 2
Параметр QPel формата : Нет
Параметр GMC формата : Без точки перехода
Параметр матрицы формата : Default (H.263)
Идентификатор кодека : XVID
Идентификатор кодека/Подсказка : XviD
Продолжительность : 54 м.
Битрейт : 1800 Кбит/сек
Ширина : 720 пикселей
Высота : 400 пикселей
Соотношение сторон : 16:9
Частота кадров : 25,000 кадров/сек
Цветовое пространство : YUV
Субдискретизация насыщенности : 4:2:0
Битовая глубина : 8 бит
Тип развёртки : Прогрессивная
Метод сжатия : С потерями
Бит/(Пиксели*Кадры) : 0.250
Размер потока : 706 Мбайт (90%)
Библиотека кодирования : XviD 1.2.1 (UTC 2008-12-04)
Аудио
Идентификатор : 1
Формат : AC-3
Формат/Информация : Audio Coding 3
Расширение режима : CM (complete main)
Параметр Endianness формата : Big
Идентификатор кодека : 2000
Продолжительность : 54 м.
Вид битрейта : Постоянный
Битрейт : 192 Кбит/сек
Каналы : 2 канала
Расположение каналов : Front: L R
Частота : 48,0 КГц
Метод сжатия : С потерями
Размер потока : 75,3 Мбайт (10%)
Выравнивание : Разделение по промежуткам
Продолжительность промежутка : 40 мс. (1,00 видеокадр)
Время предзагрузки промежутка : 500 мс.

Релиз от:



   Похожие торренты   Торрент   Размер 
В этой теме нет новых непрочитанных сообщений. Знание-сила [03] (2015) SATRip

7 | 0

560.1 МБ

В этой теме нет новых непрочитанных сообщений. Знание-сила [02] (2015) SATRip

14 | 2

532.69 МБ

В этой теме нет новых непрочитанных сообщений. Знание - Сила [01-06] (2015) HDTVRip от Generalfilm

1 | 2

3.11 ГБ

В этой теме нет новых непрочитанных сообщений. Знание - Сила [01-02] (2015) HDTVRip от Generalfilm

22 | 5

1.18 ГБ

В этой теме нет новых непрочитанных сообщений. Знание - Сила [01-02] (2015) HDTVRip от Generalfilm

16 | 19

1.67 ГБ

В этой теме нет новых непрочитанных сообщений. Знание - Сила [01-04] (2015) HDTVRip от Generalfilm

6 | 10

2.15 ГБ

В этой теме нет новых непрочитанных сообщений. Знание - Сила [01-13] (2015) HDTVRip от Generalfilm

23 | 8

6.99 ГБ




Вы не можете начинать темы
Вы не можете отвечать на сообщения
Вы не можете редактировать свои сообщения
Вы не можете удалять свои сообщения
Вы не можете добавлять вложения

Перейти:  
Для Мосгорсуда, Роскомнадзора и рекламодателей: mosgorsud-torrent[собачка]yandex.ru
 Вход
ppkBB3cker v.2 © 2008-2014 @ PPK
[ Time : 0.590s | 14 Queries | GZIP : Off ]

Торрент трекер RUTOR.IN, Не можете зайти на rutor.org? Какой новый адрес рутор? Какое зеркало рутор? Не работает rutor.org и зеркала? Тогда наш торрент специально для вас. Rutor.in неофициальное зеркало rutor. В случае если у Вас заблокирован rutor или вдруг Вы не можете на него зайти, то Вы без труда сможете скачать бесплатно и без рекламы последние новинки кино, игр, сериалов и прочего у нас, на Rutor.in. Не нужно использовать прокси, чтобы зайти на рутор, достаточно воспользоваться нашим ресурсом. Все новые фильмы, игры, сериалы, книги и музыка за 2013 и 2014 годы через торрент бесплатно. Скачивайте фильмы в хорошем качестве, игры для пк, xbox, playstation без регистрации. У нас вы найдете новые Зарубежные сериалы и Русские сериалы 2013, 2014, 2015 годов. Оставайтесь с нами, качайте любимые фильмы, игры, сериалы, книги и музыку.