img image001 image001 image001 image001 image001 image001 image001 image001 image001 image001 image001 image001 image001 image001 image001

Planets Sun Sun Sun
Статистика раздачи
Автор: Nickolas3434 | Размер: 5.17 ГБ | Добавлен: 22 сен 2015
Раздают: 390    Качают: 20
Скачать торрент
Скачать торрент
Описание торрента

СообщениеДобавлено: 22 сен 2015 


Информация о фильме
Название: Акула-монстр: мегалодон жив
Оригинальное название: Megalodon: The Monster Shark Lives
Год выхода: 2013
Жанр: Документальный
Режиссер: Даг Гловер
В ролях: Клэйтон Эвертсон, Дэррон Каллиган, Акулы
Описание: Новая программа Discovery Channel «Акула-монстр: мегалодон жив» рассказывает историю одного из самых крупных видов акул, когда-либо существовавших на Земле. Вопрос о размерах этого вымершего морского хищника до сих пор вызывает споры в научном сообществе. Первая попытка реконструкции челюсти мегалодона была предпринята профессором Бэшвордом Дином еще в 1909 году – по его мнению, длина тела этой рыбы составляла около 30 метров. Однако сейчас этa версия ставится под сомнение: большинство ученых считает, что мегалодон достигал гораздо больших размеров – и мог бы посоревноваться даже с китовой акулой.
Несмотря на некоторые разногласия, практически все исследователи уверены в одном: мегалодоны вымерли миллионы лет назад. Однако недавно появилась информация о том, что у берегов Южной Африки рыбаки видели акулу гигантских размеров. Существует ли возможность, что мегалодон все еще обитает в глубинах океана? Команда Discovery Channel объединилась с лучшими учеными Америки, чтобы раз и навсегда дать ответ на этот вопрос.

Страна: США
Продолжительность: 01:23:17
Перевод: Профессиональный (одноголосный закадровый)
Файл
Формат: TS
Качество: HDTV 1080i
Видео: 1920x1080,16:9, H.264, 25.000 fps, 8 065 Kbps
Аудио: AC3, 6 ch, 48.0 KHz, 384 Kbps

General
ID : 1 (0x1)
Complete name : F:Megalodon The Monster Shark.ts
Format : MPEG-TS
File size : 5.17 GiB
Duration : 1h 23mn
Overall bit rate mode : Variable
Overall bit rate : 8 892 Kbps
Video
ID : 324 (0x144)
Menu ID : 1 (0x1)
Format : AVC
Format/Info : Advanced Video Codec
Format profile : High@L4.0
Format settings, CABAC : Yes
Format settings, ReFrames : 3 frames
Codec ID : 27
Duration : 1h 23mn
Bit rate : 8 065 Kbps
Width : 1 920 pixels
Height : 1 080 pixels
Display aspect ratio : 16:9
Frame rate : 25.000 fps
Standard : Component
Color space : YUV
Chroma subsampling : 4:2:0
Bit depth : 8 bits
Scan type : Interlaced
Bits/(Pixel*Frame) : 0.156
Stream size : 4.69 GiB (91%)
Color primaries : BT.709
Transfer characteristics : BT.709
Matrix coefficients : BT.709
Audio
ID : 404 (0x194)
Menu ID : 1 (0x1)
Format : AC-3
Format/Info : Audio Coding 3
Mode extension : CM (complete main)
Format settings, Endianness : Big
Codec ID : 129
Duration : 1h 23mn
Bit rate mode : Constant
Bit rate : 384 Kbps
Channel count : 6 channels
Channel positions : Front: L C R, Side: L R, LFE
Sampling rate : 48.0 KHz
Bit depth : 16 bits
Compression mode : Lossy
Stream size : 229 MiB (4%)
Language : Russian



   Похожие торренты   Торрент   Размер 
В этой теме нет новых непрочитанных сообщений. Мегалодон / Megalodon (2002) DVDRip-AVC | P2

33 | 6

1.37 ГБ

В этой теме нет новых непрочитанных сообщений. Мегалодон / Megalodon (2002) DVDRip-AVC

90 | 42

1.46 ГБ

В этой теме нет новых непрочитанных сообщений. Мегалодон / Megalodon (2002) DVDRip | P2

17 | 4

2.38 ГБ

В этой теме нет новых непрочитанных сообщений. National Geographic: Доисторические хищники. Акула-чудовище / Prehistoric Predators. Monster Shark (2008) HDTVRip от ExKinoRay

70 | 9

599.84 МБ

В этой теме нет новых непрочитанных сообщений. По следам мифических чудовищ. Африканский болотный монстр / Beast man. African swamp monster (2010) HDTV 1080i

0 | 3

2.4 ГБ

В этой теме нет новых непрочитанных сообщений. Психованная акула / Чудовище Акула / Psycho Shark (2009) DVDRip

25 | 10

769.68 МБ

В этой теме нет новых непрочитанных сообщений. National Geographic: Акула по кличке Николь / National Geographic: Shark Nicole (2008) HDTV 1080i

1 | 2

1.61 ГБ




Вы не можете начинать темы
Вы не можете отвечать на сообщения
Вы не можете редактировать свои сообщения
Вы не можете удалять свои сообщения
Вы не можете добавлять вложения

Перейти:  
Для Мосгорсуда, Роскомнадзора и рекламодателей: mosgorsud-torrent[собачка]yandex.ru
 Вход
ppkBB3cker v.2 © 2008-2014 @ PPK
[ Time : 2.823s | 15 Queries | GZIP : Off ]

Торрент трекер RUTOR.IN, Не можете зайти на rutor.org? Какой новый адрес рутор? Какое зеркало рутор? Не работает rutor.org и зеркала? Тогда наш торрент специально для вас. Rutor.in неофициальное зеркало rutor. В случае если у Вас заблокирован rutor или вдруг Вы не можете на него зайти, то Вы без труда сможете скачать бесплатно и без рекламы последние новинки кино, игр, сериалов и прочего у нас, на Rutor.in. Не нужно использовать прокси, чтобы зайти на рутор, достаточно воспользоваться нашим ресурсом. Все новые фильмы, игры, сериалы, книги и музыка за 2013 и 2014 годы через торрент бесплатно. Скачивайте фильмы в хорошем качестве, игры для пк, xbox, playstation без регистрации. У нас вы найдете новые Зарубежные сериалы и Русские сериалы 2013, 2014, 2015 годов. Оставайтесь с нами, качайте любимые фильмы, игры, сериалы, книги и музыку.
cron