img image001 image001 image001 image001 image001 image001 image001 image001 image001 image001 image001 image001 image001 image001 image001

Planets Sun Sun Sun
Статистика раздачи
Автор: Nickolas3434 | Размер: 2.2 ГБ | Добавлен: 23 сен 2015
Раздают: 343    Качают: 12
Скачать торрент
Скачать торрент
Описание торрента

СообщениеДобавлено: 23 сен 2015 


Информация о фильме
Название: Дикая природа Индонезии
Оригинальное название: Wild Indonesia
Год выхода: 2014
Жанр: Документальный
Режиссер: Charlie Lickock Чарли Ликок
В ролях: Животные
Описание: Индонезия - это совокупность небольших островов, какие-то крупные, а какие-то и немного поменьше, когда-то в свое время отделившиеся от двух материков. В общей сложности насчитывается свыше семнадцати тысяч этих островов, на каждом из которых обитают удивительные животные. Индонезия имеет самую богатую фауну среди всех стран мира. Многообразием отличаются практически все основные классы животных, обитающих в Индонезии. Многие из представителей флоры и фауны, будучи отрезанными от крупных материков, стали самостоятельными и по стечению обстоятельств стали уникальными.
Страна: США
Студия: Fence of Blue ant Media
Продолжительность: 3x ~ 00:44:00
Перевод: дублированный (одноголосый) Борис Хасанов
Файл
Формат: MKV
Качество: HDTVRip-AVC
Видео: 1024x576, 16:9, H.264, 2200 Kbps, 25 fps
Аудио: AC3, 192 Кбит/с, 2 channels, 48.0 KHz
01. Потерянные миры Папуа / Papuas Lost Worlds
На восточной границе Индонезии находится древний мир. Это земля контрастов созданная огнём. За тысячи лет, проведённые в изоляции, живые существа изменились до неузнаваемости. В каждом ареале обитает уникальное сочетание смелых и странных созданий. Потерянные миры Папуа поддерживают одну из самых богатых и необычных экосистем на нашей планете
02. Острова монстров / Islands Of Monsters
Борнео и Суматра тропические острова невероятных размеров, дикие и непредсказуемые. Огромные и величественные животные умудряются уживаться друг с другом в плену непроходимых джунглей. В этом удивительном месте, где почти каждый вид животных уникален, мирно сосуществуют карлики и великаны, красавцы и уродцы, постоянно происходит борьба за жизнь. Здесь ярко выражены всякие мастерские ухищрения приёмов эволюции, обеспечивающие процветание островов и их обитателей. Растения и животные развили уникальные способности, которые помогают им приспособиться к жизни. Но даже сегодня биологи не могут объяснить происхождение многих из этих видов.
03. Земля Драконов / Land Of Dragons
Центральная часть Индонезии - дикая вулканическая местность. В зоне муссонов дожди создали рай на земле. Жизнь на этих тропических островах бьет ключом. Но на этой земле драконов не всё так просто как кажется. Отправляйтесь на далекие необитаемые острова в океане, расположенные вне досягаемости для большей части флоры и фауны крупных островов, и познакомьтесь с удивительным миром уникальных растений и животных.



General
Unique ID : 321470413017690246708452372129849794099 (0xF1D8F3103D0FD1F5573DB1E9A24BDE33)
Complete name : D:ВидеоФлора и фаунаWild Indonesia1.Papuas Lost Worlds.mkv
Format : Matroska
Format version : Version 4 / Version 2
File size : 750 MiB
Duration : 44mn 0s
Overall bit rate : 2 383 Kbps
Encoded date : UTC 2015-05-02 18:54:19
Writing application : Lavf56.30.100
Writing library : Lavf56.30.100
Video
ID : 1
Format : AVC
Format/Info : Advanced Video Codec
Format profile : High@L4.1
Format settings, CABAC : Yes
Format settings, ReFrames : 6 frames
Codec ID : V_MPEG4/ISO/AVC
Duration : 44mn 0s
Bit rate : 2 200 Kbps
Width : 1 024 pixels
Height : 576 pixels
Display aspect ratio : 16:9
Frame rate mode : Constant
Frame rate : 25.000 fps
Color space : YUV
Chroma subsampling : 4:2:0
Bit depth : 8 bits
Scan type : Progressive
Bits/(Pixel*Frame) : 0.149
Stream size : 674 MiB (90%)
Writing library : x264 core 146 r2538
Encoding settings : cabac=1 / ref=6 / deblock=1:0:0 / analyse=0x3:0x113 / me=umh / subme=9 / psy=1 / psy_rd=1.00:0.00 / mixed_ref=0 / me_range=32 / chroma_me=1 / trellis=1 / 8x8dct=1 / cqm=0 / deadzone=21,11 / fast_pskip=1 / chroma_qp_offset=-2 / threads=6 / lookahead_threads=1 / sliced_threads=0 / nr=0 / decimate=1 / interlaced=0 / bluray_compat=0 / constrained_intra=0 / bframes=9 / b_pyramid=2 / b_adapt=2 / b_bias=0 / direct=3 / weightb=0 / open_gop=0 / weightp=2 / keyint=250 / keyint_min=25 / scenecut=40 / intra_refresh=0 / rc_lookahead=40 / rc=2pass / mbtree=1 / bitrate=2200 / ratetol=1.0 / qcomp=0.60 / qpmin=10 / qpmax=69 / qpstep=4 / cplxblur=20.0 / qblur=0.5 / vbv_maxrate=2200 / vbv_bufsize=24000 / nal_hrd=none / filler=0 / ip_ratio=1.40 / aq=2:1.00
Default : Yes
Forced : No
Audio
ID : 2
Format : AC-3
Format/Info : Audio Coding 3
Mode extension : CM (complete main)
Format settings, Endianness : Big
Codec ID : A_AC3
Duration : 44mn 0s
Bit rate mode : Constant
Bit rate : 192 Kbps
Channel(s) : 2 channels
Channel positions : Front: L R
Sampling rate : 48.0 KHz
Bit depth : 16 bits
Compression mode : Lossy
Stream size : 60.4 MiB (8%)
Default : Yes
Forced : No



   Похожие торренты   Торрент   Размер 
В этой теме нет новых непрочитанных сообщений. BBC. Дикая Индонезия / BBC. Wild Indonesia (2000) DVDRip

6 | 4

2.06 ГБ

В этой теме нет новых непрочитанных сообщений. Дикая природа Миссисипи / Wild Mississippi (2011) HDTVRip 1080i | P1

48 | 13

10.1 ГБ

В этой теме нет новых непрочитанных сообщений. Дикая природа Аляски / Wild Alaska (2011) HDTVRip-AVC от Leo.pard | D

7 | 2

699.57 МБ

В этой теме нет новых непрочитанных сообщений. Дикая природа Аляски / Wild Alaska (2011) HDTVRip от Leo.pard | D

4 | 2

700.66 МБ

В этой теме нет новых непрочитанных сообщений. National Geographic: Дикая природа России [6 серий из 6] / Wild Russia (2009) HDTVRip 720p

54 | 11

6.93 ГБ

В этой теме нет новых непрочитанных сообщений. Дикая природа. Семейные узы: Западная равнинная горилла / Wild Life. Family Ties: Western Lowland Gorilla (2012) HDTVRip от GeneralFilm | P1

23 | 4

638.17 МБ

В этой теме нет новых непрочитанных сообщений. Дикая природа / Running Wild (1998) DVDRip от olegek70 | P

4 | 2

717.6 МБ




Вы не можете начинать темы
Вы не можете отвечать на сообщения
Вы не можете редактировать свои сообщения
Вы не можете удалять свои сообщения
Вы не можете добавлять вложения

Перейти:  
Для Мосгорсуда, Роскомнадзора и рекламодателей: mosgorsud-torrent[собачка]yandex.ru
 Вход
ppkBB3cker v.2 © 2008-2014 @ PPK
[ Time : 0.049s | 14 Queries | GZIP : Off ]

Торрент трекер RUTOR.IN, Не можете зайти на rutor.org? Какой новый адрес рутор? Какое зеркало рутор? Не работает rutor.org и зеркала? Тогда наш торрент специально для вас. Rutor.in неофициальное зеркало rutor. В случае если у Вас заблокирован rutor или вдруг Вы не можете на него зайти, то Вы без труда сможете скачать бесплатно и без рекламы последние новинки кино, игр, сериалов и прочего у нас, на Rutor.in. Не нужно использовать прокси, чтобы зайти на рутор, достаточно воспользоваться нашим ресурсом. Все новые фильмы, игры, сериалы, книги и музыка за 2013 и 2014 годы через торрент бесплатно. Скачивайте фильмы в хорошем качестве, игры для пк, xbox, playstation без регистрации. У нас вы найдете новые Зарубежные сериалы и Русские сериалы 2013, 2014, 2015 годов. Оставайтесь с нами, качайте любимые фильмы, игры, сериалы, книги и музыку.