img image001 image001 image001 image001 image001 image001 image001 image001 image001 image001 image001 image001 image001 image001 image001

Planets Sun Sun Sun
Статистика раздачи
Автор: Nickolas3434 | Размер: 1.37 ГБ | Добавлен: 23 сен 2015
Раздают: 82    Качают: 2
Скачать торрент
Скачать торрент
Описание торрента

СообщениеДобавлено: 23 сен 2015 

Теория Заговора. Заговор Против Водителей


#77
Год выпуска: 13.09.2015
Страна: Россия
Студия: Первый Канал HD | ЗАО «Среда обитания»
Жанр: Документальный
Продолжительность: 0:44:33
Автор и руководитель цикла: Андрей Сычев
Режиссеры: Алексей Булейко, Кирилл Ващенко
Ведущий: Игорь Савочкин

Описание: "Палёный" бензин, незаконная эвакуация, штрафы и нелегальные парковки. Из водителей пытаются всеми способами вытянуть лишние деньги. Логика простая – если у человека есть машина, с него есть что взять.

Автор рипа: lrn
Автор записи: GeneralFilm
Сэмпл: sendfile

Тип релиза: HDTVRip 720p
Контейнер: MKV
Видео: 1280x720 (16:9), 25,000 fps, H264, ~4000 kbps avg, ~0.174 bit/pixel
Аудио: 48 kHz, AC3 Dolby Digital, 3/2 (L,C,R,l,r) + LFE ch, ~384.00 kbps avg

General
Unique ID : 191616267101698592323367338435281058637 (0x9027F35EBC139B439BC1A2DC9A727B4D)
Complete name : E:uTorrent.TempTempTeoriya.Zagovora.(2015.09.20).HDTV.720p.x264-lrn.mkv
Format : Matroska
Format version : Version 4 / Version 2
File size : 1.37 GiB
Duration : 44mn 51s
Overall bit rate : 4 385 Kbps
Movie name : Teoriya.Zagovora.(2015.09.20).HDTV.720p.x264-lrn
Encoded date : UTC 2010-02-22 21:41:31
Writing application : mkvmerge v5.9.0 ('On The Loose') built on Dec 9 2012 15:37:01
Writing library : libebml v1.3.0 + libmatroska v1.4.0
DURATION : 00:44:51.680000000
NUMBER_OF_FRAMES : 67292
NUMBER_OF_BYTES : 1345549496
_STATISTICS_WRITING_APP : mkvmerge v7.7.0 ('Six Voices') 32bit built on Feb 28 2015 23:23:00
_STATISTICS_WRITING_DATE_UT : 2015-09-20 19:30:23
_STATISTICS_TAGS : BPS DURATION NUMBER_OF_FRAMES NUMBER_OF_BYTES
Video
ID : 1
Format : AVC
Format/Info : Advanced Video Codec
Format profile : High@L4.1
Format settings, CABAC : Yes
Format settings, ReFrames : 8 frames
Codec ID : V_MPEG4/ISO/AVC
Duration : 44mn 51s
Bit rate : 4 000 Kbps
Width : 1 280 pixels
Height : 720 pixels
Display aspect ratio : 16:9
Frame rate mode : Constant
Frame rate : 25.000 fps
Color space : YUV
Chroma subsampling : 4:2:0
Bit depth : 8 bits
Scan type : Progressive
Bits/(Pixel*Frame) : 0.174
Stream size : 1.23 GiB (89%)
Writing library : x264 core 146 r2538 121396c
Encoding settings : cabac=1 / ref=8 / deblock=1:-3:-3 / analyse=0x3:0x133 / me=umh / subme=9 / psy=1 / psy_rd=1.00:0.00 / mixed_ref=1 / me_range=32 / chroma_me=1 / trellis=2 / 8x8dct=1 / cqm=0 / deadzone=21,11 / fast_pskip=1 / chroma_qp_offset=-2 / threads=12 / lookahead_threads=2 / sliced_threads=0 / nr=0 / decimate=1 / interlaced=0 / bluray_compat=0 / constrained_intra=0 / bframes=8 / b_pyramid=2 / b_adapt=2 / b_bias=0 / direct=3 / weightb=1 / open_gop=0 / weightp=2 / keyint=250 / keyint_min=25 / scenecut=40 / intra_refresh=0 / rc_lookahead=50 / rc=2pass / mbtree=1 / bitrate=4000 / ratetol=1.0 / qcomp=0.60 / qpmin=0 / qpmax=69 / qpstep=4 / cplxblur=20.0 / qblur=0.5 / vbv_maxrate=62500 / vbv_bufsize=78125 / nal_hrd=none / filler=0 / ip_ratio=1.40 / aq=1:1.00
Default : Yes
Forced : No
Audio
ID : 2
Format : AC-3
Format/Info : Audio Coding 3
Mode extension : CM (complete main)
Format settings, Endianness : Big
Codec ID : A_AC3
Duration : 44mn 51s
Bit rate mode : Constant
Bit rate : 384 Kbps
Channel(s) : 6 channels
Channel positions : Front: L C R, Side: L R, LFE
Sampling rate : 48.0 KHz
Compression mode : Lossy
Stream size : 123 MiB (9%)
Language : Russian
Default : Yes
Forced : No
raw [info]: 1280x720p 1:1 @ 25/1 fps (cfr)
x264 [info]: using SAR=1/1
x264 [info]: using cpu capabilities: MMX2 SSE2Fast SSSE3 SSE4.2 AVX
x264 [info]: profile High, level 4.1
x264 [info]: frame I:524 Avg QP:14.18 size:132779
x264 [info]: frame P:18973 Avg QP:17.30 size: 42018
x264 [info]: frame B:47795 Avg QP:20.31 size: 10017
x264 [info]: consecutive B-frames: 3.5% 6.1% 7.9% 70.9% 5.0% 4.6% 0.9% 0.7% 0.2%
x264 [info]: mb I I16..4: 6.5% 70.2% 23.3%
x264 [info]: mb P I16..4: 3.0% 11.0% 1.6% P16..4: 42.8% 20.4% 13.3% 0.7% 0.2% skip: 7.1%
x264 [info]: mb B I16..4: 0.3% 0.8% 0.2% B16..8: 35.1% 8.3% 1.9% direct: 6.1% skip:47.4% L0:38.4% L1:44.1% BI:17.5%
x264 [info]: 8x8 transform intra:69.6% inter:54.8%
x264 [info]: direct mvs spatial:98.9% temporal:1.1%
x264 [info]: coded y,uvDC,uvAC intra: 68.2% 78.3% 46.7% inter: 21.4% 23.2% 2.1%
x264 [info]: i16 v,h,dc,p: 41% 20% 8% 31%
x264 [info]: i8 v,h,dc,ddl,ddr,vr,hd,vl,hu: 12% 14% 12% 7% 10% 10% 11% 9% 13%
x264 [info]: i4 v,h,dc,ddl,ddr,vr,hd,vl,hu: 15% 16% 8% 7% 11% 11% 12% 9% 12%
x264 [info]: i8c dc,h,v,p: 36% 30% 21% 14%
x264 [info]: Weighted P-Frames: Y:2.5% UV:0.9%
x264 [info]: ref P L0: 56.4% 11.4% 15.4% 5.0% 4.0% 3.0% 2.7% 1.9% 0.2% 0.0%
x264 [info]: ref B L0: 84.3% 8.9% 3.0% 1.5% 1.1% 0.7% 0.4%
x264 [info]: ref B L1: 96.7% 3.3%
x264 [info]: kb/s:3999.14
encoded 67292 frames, 14.03 fps, 3999.14 kb/s



   Похожие торренты   Торрент   Размер 
В этой теме нет новых непрочитанных сообщений. Теория заговора.Заговор против водителей (2015) HDTVRip от GeneralFilm

213 | 8

550.61 МБ

В этой теме нет новых непрочитанных сообщений. Теория заговора. Заговор против водителей (2015) HDTV 1080i от GeneralFilm

84 | 2

2.97 ГБ

В этой теме нет новых непрочитанных сообщений. Теория Заговора. Морепродукты (2015) HDTVRip 720p

202 | 19

1.31 ГБ

В этой теме нет новых непрочитанных сообщений. Теория Заговора. Свахи (2015) HDTVRip 720p

38 | 7

1.36 ГБ

В этой теме нет новых непрочитанных сообщений. Теория Заговора. Полуфабрикаты (2015) HDTVRip 720p

331 | 33

1.3 ГБ

В этой теме нет новых непрочитанных сообщений. Теория Заговора. Новогодний Стол (2015) HDTVRip 720p

19 | 1

1.18 ГБ

В этой теме нет новых непрочитанных сообщений. Теория Заговора. Лекарства-Пустышки (2015) HDTVRip 720p

62 | 8

1.34 ГБ




Вы не можете начинать темы
Вы не можете отвечать на сообщения
Вы не можете редактировать свои сообщения
Вы не можете удалять свои сообщения
Вы не можете добавлять вложения

Перейти:  
Для Мосгорсуда, Роскомнадзора и рекламодателей: mosgorsud-torrent[собачка]yandex.ru
 Вход
ppkBB3cker v.2 © 2008-2014 @ PPK
[ Time : 0.560s | 16 Queries | GZIP : Off ]

Торрент трекер RUTOR.IN, Не можете зайти на rutor.org? Какой новый адрес рутор? Какое зеркало рутор? Не работает rutor.org и зеркала? Тогда наш торрент специально для вас. Rutor.in неофициальное зеркало rutor. В случае если у Вас заблокирован rutor или вдруг Вы не можете на него зайти, то Вы без труда сможете скачать бесплатно и без рекламы последние новинки кино, игр, сериалов и прочего у нас, на Rutor.in. Не нужно использовать прокси, чтобы зайти на рутор, достаточно воспользоваться нашим ресурсом. Все новые фильмы, игры, сериалы, книги и музыка за 2013 и 2014 годы через торрент бесплатно. Скачивайте фильмы в хорошем качестве, игры для пк, xbox, playstation без регистрации. У нас вы найдете новые Зарубежные сериалы и Русские сериалы 2013, 2014, 2015 годов. Оставайтесь с нами, качайте любимые фильмы, игры, сериалы, книги и музыку.
cron