img image001 image001 image001 image001 image001 image001 image001 image001 image001 image001 image001 image001 image001 image001 image001

Planets Sun Sun Sun
Статистика раздачи
Автор: Nickolas3434 | Размер: 667.03 МБ | Добавлен: 23 сен 2015
Раздают: 90    Качают: 12
Скачать торрент
Скачать торрент
Описание торрента

СообщениеДобавлено: 23 сен 2015 


Информация о фильме
Название: Самые шокирующие гипотезы
Год выхода: 2015
Жанр: Документальный
Режиссер: Артемий Гринчевский
О фильме:
"Самые шокирующие гипотезы" - документальный проект телеканала "Рен ТВ"! Мы дадим новые ответы на старые вопросы и зададим свои. Факты, о которых долго молчали наши коллеги-журналисты, и независимая оценка событий, изменивших мир. Расследования самых сенсационных историй и свежий взгляд на, казалось бы, общеизвестные исторические факты. Поиск закономерностей и параллелей в самых невероятных явлениях нашей жизни, новости из всех областей человеческих знаний и загадки потаённых уголков нашего подсознания.
Продолжительность: ~00:48:00
Перевод: Не требуется
Файл
Кодек: XviD
Качество: SATRip
Видео: XviD, 1800 Кбит/с, 704x448
Звук: МР3, 2 ch, 128 Кбит/с
Общее
Полное имя : D:SteamSSHG.2015.09.22.kto.nashel.korabl.SATRip.avi
Формат : AVI
Формат/Информация : Audio Video Interleave
Размер файла : 667 Мбайт
Продолжительность : 48 м.
Общий поток : 1938 Кбит/сек
Библиотека кодирования : VirtualDub build 32817/release
Видео
Идентификатор : 0
Формат : MPEG-4 Visual
Профиль формата : Advanced Simple@L5
Параметр BVOP формата : 2
Параметр QPel формата : Нет
Параметр GMC формата : Без точки перехода
Параметр матрицы формата : Default (MPEG)
Идентификатор кодека : XVID
Идентификатор кодека/Подсказка : XviD
Продолжительность : 48 м.
Битрейт : 1800 Кбит/сек
Ширина : 704 пикселя
Высота : 448 пикселей
Соотношение сторон : 16:10
Частота кадров : 25,000 кадров/сек
Цветовое пространство : YUV
Субдискретизация насыщенности : 4:2:0
Битовая глубина : 8 бит
Тип развёртки : Прогрессивная
Метод сжатия : С потерями
Бит/(Пиксели*Кадры) : 0.228
Размер потока : 620 Мбайт (93%)
Библиотека кодирования : XviD 1.2.1 (UTC 2008-12-04)
Аудио
Идентификатор : 1
Формат : MPEG Audio
Версия формата : Version 1
Профиль формата : Layer 3
Режим : Joint stereo
Расширение режима : MS Stereo
Идентификатор кодека : 55
Идентификатор кодека/Подсказка : MP3
Продолжительность : 48 м.
Вид битрейта : Постоянный
Битрейт : 128 Кбит/сек
Каналы : 2 канала
Частота : 48,0 КГц
Метод сжатия : С потерями
Размер потока : 44,1 Мбайт (7%)
Выравнивание : Разделение по промежуткам
Продолжительность промежутка : 40 мс. (1,00 видеокадр)
Время предзагрузки промежутка : 500 мс.

Релиз от:



   Похожие торренты   Торрент   Размер 
В этой теме нет новых непрочитанных сообщений. Самые шокирующие гипотезы [29.09] (2015) SATRip

71 | 14

664.82 МБ

В этой теме нет новых непрочитанных сообщений. Самые шокирующие гипотезы [01.10] (2015) SATRip

342 | 13

667.45 МБ

В этой теме нет новых непрочитанных сообщений. Самые шокирующие гипотезы [15.10] (2015) SATRip

89 | 4

665.78 МБ

В этой теме нет новых непрочитанных сообщений. Самые шокирующие гипотезы [17.09] (2015) SATRip

76 | 4

556.82 МБ

В этой теме нет новых непрочитанных сообщений. Самые шокирующие гипотезы [23.09] (2015) SATRip

88 | 16

664.11 МБ

В этой теме нет новых непрочитанных сообщений. Самые шокирующие гипотезы [08.10] (2015) SATRip

65 | 8

665.98 МБ

В этой теме нет новых непрочитанных сообщений. Самые шокирующие гипотезы [01-68 из 68] (2015) SATRip

0 | 278

43.58 ГБ




Вы не можете начинать темы
Вы не можете отвечать на сообщения
Вы не можете редактировать свои сообщения
Вы не можете удалять свои сообщения
Вы не можете добавлять вложения

Перейти:  
Для Мосгорсуда, Роскомнадзора и рекламодателей: mosgorsud-torrent[собачка]yandex.ru
 Вход
ppkBB3cker v.2 © 2008-2014 @ PPK
[ Time : 0.025s | 14 Queries | GZIP : On ]

Торрент трекер RUTOR.IN, Не можете зайти на rutor.org? Какой новый адрес рутор? Какое зеркало рутор? Не работает rutor.org и зеркала? Тогда наш торрент специально для вас. Rutor.in неофициальное зеркало rutor. В случае если у Вас заблокирован rutor или вдруг Вы не можете на него зайти, то Вы без труда сможете скачать бесплатно и без рекламы последние новинки кино, игр, сериалов и прочего у нас, на Rutor.in. Не нужно использовать прокси, чтобы зайти на рутор, достаточно воспользоваться нашим ресурсом. Все новые фильмы, игры, сериалы, книги и музыка за 2013 и 2014 годы через торрент бесплатно. Скачивайте фильмы в хорошем качестве, игры для пк, xbox, playstation без регистрации. У нас вы найдете новые Зарубежные сериалы и Русские сериалы 2013, 2014, 2015 годов. Оставайтесь с нами, качайте любимые фильмы, игры, сериалы, книги и музыку.