img image001 image001 image001 image001 image001 image001 image001 image001 image001 image001 image001 image001 image001 image001 image001

Planets Sun Sun Sun
Статистика раздачи
Автор: Nickolas3434 | Размер: 743.44 МБ | Добавлен: 26 сен 2015
Раздают: 82    Качают: 4
Скачать торрент
Скачать торрент
Описание торрента

СообщениеДобавлено: 26 сен 2015 


Информация о фильме
Название: Джуна - Дар одиночества
Год выхода: 2015
Жанр: Документальный
О фильме:
Целительницы Джуны Давиташвили не стало 8 июня 2015 года. В это время мы все еще продолжали записывать интервью с ее друзьями, пациентами, многочисленными коллегами.
Страна: Россия
Продолжительность: ~00:50:00
Перевод: Не требуется
Файл
Кодек: XviD
Качество: SATRip
Видео: 704x448 25.00fps 1800kbps
Звук: 48000Hz stereo 192kbps
Общее
Полное имя : D:Dzhuna-Dar.Odinochestva.SATRip.avi
Формат : AVI
Формат/Информация : Audio Video Interleave
Размер файла : 743 Мбайт
Продолжительность : 51 м.
Общий поток : 2002 Кбит/сек
Программа кодирования : VirtualDubMod 1.5.10.3 | www.virtualdub-fr.org || (build 2550/release)
Библиотека кодирования : VirtualDubMod build 2550/release
Видео
Идентификатор : 0
Формат : MPEG-4 Visual
Профиль формата : Advanced Simple@L5
Параметр BVOP формата : 2
Параметр QPel формата : Нет
Параметр GMC формата : Без точки перехода
Параметр матрицы формата : Default (H.263)
Идентификатор кодека : XVID
Идентификатор кодека/Подсказка : XviD
Продолжительность : 51 м.
Битрейт : 1800 Кбит/сек
Ширина : 704 пикселя
Высота : 448 пикселей
Соотношение сторон : 16:10
Частота кадров : 25,000 кадров/сек
Цветовое пространство : YUV
Субдискретизация насыщенности : 4:2:0
Битовая глубина : 8 бит
Тип развёртки : Прогрессивная
Метод сжатия : С потерями
Бит/(Пиксели*Кадры) : 0.228
Размер потока : 669 Мбайт (90%)
Библиотека кодирования : XviD 73
Аудио
Идентификатор : 1
Формат : AC-3
Формат/Информация : Audio Coding 3
Расширение режима : CM (complete main)
Параметр Endianness формата : Big
Идентификатор кодека : 2000
Продолжительность : 51 м.
Вид битрейта : Постоянный
Битрейт : 192 Кбит/сек
Каналы : 2 канала
Расположение каналов : Front: L R
Частота : 48,0 КГц
Метод сжатия : С потерями
Размер потока : 71,3 Мбайт (10%)
Выравнивание : Разделение по промежуткам
Продолжительность промежутка : 40 мс. (1,00 видеокадр)
Время предзагрузки промежутка : 500 мс.

Релиз от:



   Похожие торренты   Торрент   Размер 
В этой теме нет новых непрочитанных сообщений. Провидица (Джуна) [01-06 из 12] (2015) SATRip от Files-x

1359 | 700

7.03 ГБ

В этой теме нет новых непрочитанных сообщений. Провидица (Джуна) [01-12 из 12] (2015) SATRip-AVC от Files-x

309 | 94

7.25 ГБ

В этой теме нет новых непрочитанных сообщений. Провидица (Джуна) [01-10 из 12] (2015) SATRip-AVC от Files-x

19 | 7

6.06 ГБ

В этой теме нет новых непрочитанных сообщений. Провидица (Джуна) [01-06 из 12] (2015) SATRip-AVC от Files-x

14 | 3

3.67 ГБ

В этой теме нет новых непрочитанных сообщений. Джуна. Моя исповедь (2012) SATRip от КинозалSAT

6 | 4

550.02 МБ

В этой теме нет новых непрочитанных сообщений. Пусть говорят. Джуна: Я – дочь Бога [эфир от 19.10] (2011) SATRip от RiperAM

0 | 99

652.97 МБ

В этой теме нет новых непрочитанных сообщений. Джуна [01-12 из 12] (2015) WEB-DLRip от GeneralFilm

258 | 111

4.36 ГБ




Вы не можете начинать темы
Вы не можете отвечать на сообщения
Вы не можете редактировать свои сообщения
Вы не можете удалять свои сообщения
Вы не можете добавлять вложения

Перейти:  
Для Мосгорсуда, Роскомнадзора и рекламодателей: mosgorsud-torrent[собачка]yandex.ru
 Вход
ppkBB3cker v.2 © 2008-2014 @ PPK
[ Time : 0.045s | 16 Queries | GZIP : Off ]

cron