img image001 image001 image001 image001 image001 image001 image001 image001 image001 image001 image001 image001 image001 image001 image001

Planets Sun Sun Sun
Статистика раздачи
Автор: Nickolas3434 | Размер: 628.31 МБ | Добавлен: 27 сен 2015
Раздают: 130    Качают: 11
Скачать торрент
Скачать торрент
Описание торрента

СообщениеДобавлено: 27 сен 2015 


Информация о фильме
Название: Климатические войны. В шаге от бездны
Год выхода: 2015
Жанр: Документальный
О фильме:
Существует ли сегодня в мире климатическое оружие? Или это всего лишь миф? Очередная глобальная мистификация? Мнения ученых в этом вопросе расходятся – некоторые из них утверждают, что оно не только существует, но и регулярно применяется.
Впрочем, вне зависимости от мнения ученых каждый случай серьезного климатического катаклизма вызывает всплеск заявлений об использовании США так называемого климатического оружия.
Сегодня, даже если судить по открытой информации, на разработку климатического оружия в Америке брошены лучшие научные силы и огромные средства. При ЦРУ создан Центр по климату, аналогичные структуры и программы действуют при Пентагоне, ВВС и ВМФ США. Построена сеть гигантских станций HAARP, предназначенных для сверхмощного воздействия на ионосферу и атмосферу планеты.
А что же Россия? Что можем мы противопоставить "климатической агрессии" США? Еще в советские времена в 150 километрах от Нижнего Новгорода был оборудован уникальный комплекс "Сура" - аналог HAARP. Главной задачей комплекса было изучение способов действия сверхмощных электромагнитных полей на погоду.
Если верить авторам пентагоновского документа "Властелины погоды", то к 2025 году Штаты планируют установить глобальный контроль над погодой впервые в истории человечества. Так это или нет? На эти вопросы попробуют ответить компетентные специалисты.
Страна: Россия
Продолжительность: 00:50:00
Перевод: Не требуется
Файл
Кодек: XviD
Качество: SATRip
Видео: 720x400 25.00fps 1800kbps
Звук: AC3, 48000Hz, stereo, 192kbps

Общее
Полное имя : D:Klimaticheskie.Voyni-V.Shage.ot.Bezdny.SATRip.avi
Формат : AVI
Формат/Информация : Audio Video Interleave
Размер файла : 628 Мбайт
Продолжительность : 43 м.
Общий поток : 2002 Кбит/сек
Программа кодирования : VirtualDubMod 1.5.10.3 | www.virtualdub-fr.org || (build 2550/release)
Библиотека кодирования : VirtualDubMod build 2550/release
Видео
Идентификатор : 0
Формат : MPEG-4 Visual
Профиль формата : Advanced Simple@L5
Параметр BVOP формата : 2
Параметр QPel формата : Нет
Параметр GMC формата : Без точки перехода
Параметр матрицы формата : Default (H.263)
Идентификатор кодека : XVID
Идентификатор кодека/Подсказка : XviD
Продолжительность : 43 м.
Битрейт : 1800 Кбит/сек
Ширина : 720 пикселей
Высота : 400 пикселей
Соотношение сторон : 16:9
Частота кадров : 25,000 кадров/сек
Цветовое пространство : YUV
Субдискретизация насыщенности : 4:2:0
Битовая глубина : 8 бит
Тип развёртки : Прогрессивная
Метод сжатия : С потерями
Бит/(Пиксели*Кадры) : 0.250
Размер потока : 565 Мбайт (90%)
Библиотека кодирования : XviD 73
Аудио
Идентификатор : 1
Формат : AC-3
Формат/Информация : Audio Coding 3
Расширение режима : CM (complete main)
Параметр Endianness формата : Big
Идентификатор кодека : 2000
Продолжительность : 43 м.
Вид битрейта : Постоянный
Битрейт : 192 Кбит/сек
Каналы : 2 канала
Расположение каналов : Front: L R
Частота : 48,0 КГц
Метод сжатия : С потерями
Размер потока : 60,3 Мбайт (10%)
Выравнивание : Разделение по промежуткам
Продолжительность промежутка : 40 мс. (1,00 видеокадр)
Время предзагрузки промежутка : 500 мс.

Релиз от:



   Похожие торренты   Торрент   Размер 
В этой теме нет новых непрочитанных сообщений. Климатические войны. В шаге от бездны (2015) HDTVRip от Generalfilm

473 | 18

554.18 МБ

В этой теме нет новых непрочитанных сообщений. ВВС. Климатические войны / ВВС. Climate Wars (2009) SATRip от tenow

13 | 3

1.49 ГБ

В этой теме нет новых непрочитанных сообщений. В одном шаге от Третьей Мировой [01-04 из 04] (2009) SATRip

132 | 6

2.2 ГБ

В этой теме нет новых непрочитанных сообщений. Военная приемка. "Игорь Белоусов". Спасение из бездны (2015) SATRip

171 | 26

501.97 МБ

В этой теме нет новых непрочитанных сообщений. Золото бездны (2011) SATRip by Alex Smit

0 | 145

661.84 МБ

В этой теме нет новых непрочитанных сообщений. Секретные истории. Тайны солнечной бездны (2008) SATRip

0 | 51

729.09 МБ

В этой теме нет новых непрочитанных сообщений. Алексей Леонов. У бездны на краю (2009) SATRip от ExKinoRay

28 | 15

652.38 МБ




Вы не можете начинать темы
Вы не можете отвечать на сообщения
Вы не можете редактировать свои сообщения
Вы не можете удалять свои сообщения
Вы не можете добавлять вложения

Перейти:  
Для Мосгорсуда, Роскомнадзора и рекламодателей: mosgorsud-torrent[собачка]yandex.ru
 Вход
ppkBB3cker v.2 © 2008-2014 @ PPK
[ Time : 0.038s | 16 Queries | GZIP : Off ]

Торрент трекер RUTOR.IN, Не можете зайти на rutor.org? Какой новый адрес рутор? Какое зеркало рутор? Не работает rutor.org и зеркала? Тогда наш торрент специально для вас. Rutor.in неофициальное зеркало rutor. В случае если у Вас заблокирован rutor или вдруг Вы не можете на него зайти, то Вы без труда сможете скачать бесплатно и без рекламы последние новинки кино, игр, сериалов и прочего у нас, на Rutor.in. Не нужно использовать прокси, чтобы зайти на рутор, достаточно воспользоваться нашим ресурсом. Все новые фильмы, игры, сериалы, книги и музыка за 2013 и 2014 годы через торрент бесплатно. Скачивайте фильмы в хорошем качестве, игры для пк, xbox, playstation без регистрации. У нас вы найдете новые Зарубежные сериалы и Русские сериалы 2013, 2014, 2015 годов. Оставайтесь с нами, качайте любимые фильмы, игры, сериалы, книги и музыку.