img image001 image001 image001 image001 image001 image001 image001 image001 image001 image001 image001 image001 image001 image001 image001

Planets Sun Sun Sun
Статистика раздачи
Автор: Nickolas3434 | Размер: 529.72 МБ | Добавлен: 26 сен 2015, 19:20
Раздают: 43    Качают: 1
Скачать торрент
Скачать торрент
Описание торрента

СообщениеДобавлено: 26 сен 2015, 19:20 


Информация о фильме
Название: Правила движения
Год выхода: 2015
Ведушие: Анна Семенович, Сергей Бубновский
О фильме: Программа о здоровом образе жизни.
"Правила движения" – реальная помощь в решении уже существующих проблем.
Ведущие программы - мастер спорта России международного класса по фигурному катанию, чемпионка и красавица Анна Семенович и кинезитерапевт, доктор медицинских наук, профессор Сергей Михайлович Бубновский - расскажут, как вернуть здоровье с помощью правильного движения. "Правильное движение лечит, неправильное – калечит".
Научившись двигаться правильно, можно не только справляться с недугами, но и поддерживать организм в оптимально здоровом состоянии, продлить молодость и полноценную жизнь, сохранить активность.
Неправильный образ жизни, лень и лекарства – это смерть для организма. Движение – это жизнь. Кинезитерапия - лечение движением. Боль парализует волю и разум. Но ее надо не избегать, а преодолевать. Победить боль можно, только двигаясь ей навстречу. Победить страх можно, только если делать то, что страшно. По такому же принципу можно одержать победу над болью и болезнью в конечном итоге.
Гости программы – известные люди, которые будут делиться своим опытом правильного образа жизни. Анна Семенович и Сергей Бубновский проверят жизнеспособность их теории на практике. Быстрая потеря веса и диеты? А что происходит в этот момент с мышцами, вы задумывались? А к чему приведет потеря мышечного каркаса позвоночника, вы знаете? Сергей Михайлович Бубновский всегда даст совет, расскажет, правильно ли наш звездный гость следит за своим здоровьем, а также что нужно еще сделать, чтобы образ жизни человека был действительно правильным.
Страна: Россия
Продолжительность: 00:37:00
Перевод: Не требуется
Файл
Кодек: XviD
Качество: SATRip
Видео: 720x400 25.00fps 1800kbps
Звук: 48000Hz stereo 192kbps

Общее
Полное имя : D:Pravila.Dvizheniya.26.09.2015.SATRip.avi
Формат : AVI
Формат/Информация : Audio Video Interleave
Размер файла : 530 Мбайт
Продолжительность : 37 м.
Общий поток : 1997 Кбит/сек
Программа кодирования : VirtualDubMod 1.5.10.3 | www.virtualdub-fr.org || (build 2550/release)
Библиотека кодирования : VirtualDubMod build 2550/release
Видео
Идентификатор : 0
Формат : MPEG-4 Visual
Профиль формата : Advanced Simple@L5
Параметр BVOP формата : 2
Параметр QPel формата : Нет
Параметр GMC формата : Без точки перехода
Параметр матрицы формата : Default (H.263)
Идентификатор кодека : XVID
Идентификатор кодека/Подсказка : XviD
Продолжительность : 37 м.
Битрейт : 1795 Кбит/сек
Ширина : 720 пикселей
Высота : 400 пикселей
Соотношение сторон : 16:9
Частота кадров : 25,000 кадров/сек
Цветовое пространство : YUV
Субдискретизация насыщенности : 4:2:0
Битовая глубина : 8 бит
Тип развёртки : Прогрессивная
Метод сжатия : С потерями
Бит/(Пиксели*Кадры) : 0.249
Размер потока : 476 Мбайт (90%)
Библиотека кодирования : XviD 73
Аудио
Идентификатор : 1
Формат : AC-3
Формат/Информация : Audio Coding 3
Расширение режима : CM (complete main)
Параметр Endianness формата : Big
Идентификатор кодека : 2000
Продолжительность : 37 м.
Вид битрейта : Постоянный
Битрейт : 192 Кбит/сек
Каналы : 2 канала
Расположение каналов : Front: L R
Частота : 48,0 КГц
Метод сжатия : С потерями
Размер потока : 50,9 Мбайт (10%)
Выравнивание : Разделение по промежуткам
Продолжительность промежутка : 40 мс. (1,00 видеокадр)
Время предзагрузки промежутка : 500 мс.

Релиз от:



   Похожие торренты   Торрент   Размер 
В этой теме нет новых непрочитанных сообщений. Правила движения [02] (2015) SATRip

23 | 0

500.19 МБ

В этой теме нет новых непрочитанных сообщений. Правила движения [01] (2015) HDTVRip от Files-х

63 | 18

911.34 МБ

В этой теме нет новых непрочитанных сообщений. Правила движения [01] (2015) HDTVRip от Files-х

51 | 5

468.5 МБ

В этой теме нет новых непрочитанных сообщений. Правила движения [01-03] (2015) HDTVRip от Files-х

89 | 7

1.32 ГБ

В этой теме нет новых непрочитанных сообщений. Правила движения [01-06] (2015) HDTVRip от Files-х

81 | 24

2.68 ГБ

В этой теме нет новых непрочитанных сообщений. Правила движения [01-14] (2015) HDTVRip от Files-х

295 | 16

7.37 ГБ

В этой теме нет новых непрочитанных сообщений. Правила движения [01-34] (2015-2016) HDTVRip от Files-х

1 | 0

21.05 ГБ




Вы не можете начинать темы
Вы не можете отвечать на сообщения
Вы не можете редактировать свои сообщения
Вы не можете удалять свои сообщения
Вы не можете добавлять вложения

Перейти:  
Для Мосгорсуда, Роскомнадзора и рекламодателей: mosgorsud-torrent[собачка]yandex.ru
Настройки
ppkBB3cker v.2 © 2008-2014 @ PPK
[ Time : 0.018s | 15 Queries | GZIP : Off ]
CGP [Extreme] output time : 0.00022s | 0 Queries | GZIP : Off

Торрент трекер RUTOR.IN, Не можете зайти на rutor.org? Какой новый адрес рутор? Какое зеркало рутор? Не работает rutor.org и зеркала? Тогда наш торрент специально для вас. Rutor.in неофициальное зеркало rutor. В случае если у Вас заблокирован rutor или вдруг Вы не можете на него зайти, то Вы без труда сможете скачать бесплатно и без рекламы последние новинки кино, игр, сериалов и прочего у нас, на Rutor.in. Не нужно использовать прокси, чтобы зайти на рутор, достаточно воспользоваться нашим ресурсом. Все новые фильмы, игры, сериалы, книги и музыка за 2013 и 2014 годы через торрент бесплатно. Скачивайте фильмы в хорошем качестве, игры для пк, xbox, playstation без регистрации. У нас вы найдете новые Зарубежные сериалы и Русские сериалы 2013, 2014, 2015 годов. Оставайтесь с нами, качайте любимые фильмы, игры, сериалы, книги и музыку.