img image001 image001 image001 image001 image001 image001 image001 image001 image001 image001 image001 image001 image001 image001 image001

Planets Sun Sun Sun
Статистика раздачи
Автор: Nickolas3434 | Размер: 333.92 МБ | Добавлен: 28 сен 2015
Раздают: 5    Качают: 2
Скачать торрент
Скачать торрент
Описание торрента

СообщениеДобавлено: 28 сен 2015 


Информация о фильме
Название: Кто кого на кухне?
Год выхода: 2015
Жанр: Кулинарное шоу
Режиссер: Юрий Кондратюк
Ведущий: Вячеслав Манучаров
О фильме:
Игровое кулинарное шоу, в котором две команды из звездных участников соревнуются, кто лучше повторит блюдо, приготовленное известным шеф-поваром. Все три участника команды готовят по очереди в течение пяти минут, меняя друг друга по принципу эстафеты. У каждой команды есть 3 «подсказки», которыми они обязательно должны воспользоваться.
Минута с шефом – возможность провести минуту с шеф-поваром.
Трюк – участники одной команды могут украсть у другой один ингредиент.
Все за одного – все три участника могут одновременно готовить на протяжение 90 секунд.
В конце шоу каждая команда дает оценку блюду команды-соперника до того, как шеф-повар объявит победителя.
Страна: Россия
Производство: «Мастифф»
Продолжительность: ~ 00:24:00
Перевод: Не требуется
Файл
Кодек: XviD
Качество: SATRip
Видео: 720x400, 25 fps, XviD, ~1800 kbps avg
Звук: 48 kHz, MPEG Layer 3, 2 ch, ~128.00 kbps avg

Общее
Полное имя : D:ФильмыKto kogo na kuhne.01.SATRip.avi
Формат : AVI
Формат/Информация : Audio Video Interleave
Размер файла : 337 Мбайт
Продолжительность : 24 м.
Общий поток : 1937 Кбит/сек
Программа кодирования : VirtualDubMod 1.5.10.3 | www.virtualdub-fr.org || (build 2550/release)
Библиотека кодирования : VirtualDubMod build 2550/release
Видео
Идентификатор : 0
Формат : MPEG-4 Visual
Профиль формата : Advanced Simple@L5
Параметр BVOP формата : 2
Параметр QPel формата : Нет
Параметр GMC формата : Без точки перехода
Параметр матрицы формата : Default (MPEG)
Идентификатор кодека : XVID
Идентификатор кодека/Подсказка : XviD
Продолжительность : 24 м.
Битрейт : 1800 Кбит/сек
Ширина : 720 пикселей
Высота : 400 пикселей
Соотношение сторон : 16:9
Частота кадров : 25,000 кадров/сек
Цветовое пространство : YUV
Субдискретизация насыщенности : 4:2:0
Битовая глубина : 8 бит
Тип развёртки : Прогрессивная
Метод сжатия : С потерями
Бит/(Пиксели*Кадры) : 0.250
Размер потока : 313 Мбайт (93%)
Библиотека кодирования : XviD 1.2.1 (UTC 2008-12-04)
Аудио
Идентификатор : 1
Формат : MPEG Audio
Версия формата : Version 1
Профиль формата : Layer 3
Идентификатор кодека : 55
Идентификатор кодека/Подсказка : MP3
Продолжительность : 24 м.
Вид битрейта : Постоянный
Битрейт : 128 Кбит/сек
Каналы : 2 канала
Частота : 48,0 КГц
Метод сжатия : С потерями
Размер потока : 22,3 Мбайт (7%)
Выравнивание : Соединение по промежуткам
Продолжительность промежутка : 40 мс. (1,00 видеокадр)
Время предзагрузки промежутка : 504 мс.
Библиотека кодирования : LAME3.99r
Настройки программы : -m s -V 4 -q 2 -lowpass 17 -b 128

Релиз от:



   Похожие торренты   Торрент   Размер 
В этой теме нет новых непрочитанных сообщений. Кто кого на кухне? [03] (2015) SATRip

1 | 1

331.74 МБ

В этой теме нет новых непрочитанных сообщений. Кто кого на кухне? [01] (2015) SATRip

2 | 1

337.4 МБ

В этой теме нет новых непрочитанных сообщений. Кто кого на кухне? [01] (2015) SATRip от Files-x

7 | 1

609.76 МБ

В этой теме нет новых непрочитанных сообщений. Кто кого на кухне? [01-07] (2015) SATRip от Files-x

4 | 2

2.08 ГБ

В этой теме нет новых непрочитанных сообщений. Кто кого на кухне? [01-04] (2015) SATRip от Files-x

1 | 1

1.19 ГБ

В этой теме нет новых непрочитанных сообщений. Кто кого на кухне? [01-16] (2015) SATRip от Files-x

8 | 2

5.42 ГБ

В этой теме нет новых непрочитанных сообщений. Кто кого на кухне? [01-03] (2015) SATRip от Files-x

6 | 6

917.28 МБ




Вы не можете начинать темы
Вы не можете отвечать на сообщения
Вы не можете редактировать свои сообщения
Вы не можете удалять свои сообщения
Вы не можете добавлять вложения

Перейти:  
Для Мосгорсуда, Роскомнадзора и рекламодателей: mosgorsud-torrent[собачка]yandex.ru
 Вход
ppkBB3cker v.2 © 2008-2014 @ PPK
[ Time : 0.036s | 14 Queries | GZIP : Off ]

Торрент трекер RUTOR.IN, Не можете зайти на rutor.org? Какой новый адрес рутор? Какое зеркало рутор? Не работает rutor.org и зеркала? Тогда наш торрент специально для вас. Rutor.in неофициальное зеркало rutor. В случае если у Вас заблокирован rutor или вдруг Вы не можете на него зайти, то Вы без труда сможете скачать бесплатно и без рекламы последние новинки кино, игр, сериалов и прочего у нас, на Rutor.in. Не нужно использовать прокси, чтобы зайти на рутор, достаточно воспользоваться нашим ресурсом. Все новые фильмы, игры, сериалы, книги и музыка за 2013 и 2014 годы через торрент бесплатно. Скачивайте фильмы в хорошем качестве, игры для пк, xbox, playstation без регистрации. У нас вы найдете новые Зарубежные сериалы и Русские сериалы 2013, 2014, 2015 годов. Оставайтесь с нами, качайте любимые фильмы, игры, сериалы, книги и музыку.