img image001 image001 image001 image001 image001 image001 image001 image001 image001 image001 image001 image001 image001 image001 image001

Planets Sun Sun Sun
Статистика раздачи
Автор: Nickolas3434 | Размер: 578.58 МБ | Добавлен: 03 окт 2015
Раздают: 174    Качают: 9
Скачать торрент
Скачать торрент
Описание торрента

СообщениеДобавлено: 03 окт 2015 


Информация о фильме
Название: Раскрывая тайны. Мистика (Аномальные зоны)
Год выхода: 2015
Жанр: Документальный
О фильме:
6 июня 2015 года в особняке по адресу: Большой Николопесковский переулок, дом 3, случилась трагедия. Смертельный удар настиг великую целительницу Джуну. 10 марта 2012 года в доме 36 на Староконюшенном переулке покончила жизнь самоубийством супруга актера Александра Пороховщикова - Ирина. 28 ноября 1974 года в доме 6 Кривоарбатского переулка скончался гениальный и непризнанный при жизни архитектор Константин Мельников. В 1933 году на Арбате была уничтожена главная святыня Москвы XV века - церковь Николы на песках. 31 августа 1941 года ровно через 30 лет после переезда со старого Арбата покончила жизнь самоубийством великая поэтесса Мария Цветаева. Что объединяет эти события - даты, имена, а может адреса, расскажет программа "Раскрывая тайны".
Страна: Россия
Продолжительность: 00:44:00
Перевод: Не требуется
Файл
Кодек: XviD
Качество: SATRip
Видео: 704x400 25.00fps 1699kbps
Звук: MPEG Audio Layer 3 48000Hz stereo 128Kbps
Общее
Полное имя : D:Anomaliya.avi
Формат : AVI
Формат/Информация : Audio Video Interleave
Размер файла : 579 Мбайт
Продолжительность : 44 м.
Общий поток : 1837 Кбит/сек
Программа кодирования : VirtualDubMod 1.5.10.3 | www.virtualdub-fr.org || (build 2550/release)
Библиотека кодирования : VirtualDubMod build 2550/release
Видео
Идентификатор : 0
Формат : MPEG-4 Visual
Профиль формата : Advanced Simple@L5
Параметр BVOP формата : 1
Параметр QPel формата : Нет
Параметр GMC формата : Без точки перехода
Параметр матрицы формата : Default (H.263)
Идентификатор кодека : XVID
Идентификатор кодека/Подсказка : XviD
Продолжительность : 44 м.
Битрейт : 1699 Кбит/сек
Ширина : 704 пикселя
Высота : 400 пикселей
Соотношение сторон : 16:9
Частота кадров : 25,000 кадров/сек
Цветовое пространство : YUV
Субдискретизация насыщенности : 4:2:0
Битовая глубина : 8 бит
Тип развёртки : Прогрессивная
Метод сжатия : С потерями
Бит/(Пиксели*Кадры) : 0.241
Размер потока : 535 Мбайт (93%)
Библиотека кодирования : XviD 1.2.1 (UTC 2008-12-04)
Аудио
Идентификатор : 1
Формат : MPEG Audio
Версия формата : Version 1
Профиль формата : Layer 3
Идентификатор кодека : 55
Идентификатор кодека/Подсказка : MP3
Продолжительность : 44 м.
Вид битрейта : Постоянный
Битрейт : 128 Кбит/сек
Каналы : 2 канала
Частота : 48,0 КГц
Метод сжатия : С потерями
Размер потока : 40,3 Мбайт (7%)
Выравнивание : Соединение по промежуткам
Продолжительность промежутка : 40 мс. (1,00 видеокадр)
Время предзагрузки промежутка : 504 мс.
Библиотека кодирования : LAME3.99r
Настройки программы : -m s -V 4 -q 2 -lowpass 17 -b 128
128



   Похожие торренты   Торрент   Размер 
В этой теме нет новых непрочитанных сообщений. Раскрывая тайны. Мистика (Полтергейст) (2015) SATRip

83 | 18

579.22 МБ

В этой теме нет новых непрочитанных сообщений. Раскрывая тайны. Мистика (Места силы) (2015) SATRip

115 | 14

578.14 МБ

В этой теме нет новых непрочитанных сообщений. Раскрывая тайны. Мистика (Неприкаянные души среди нас) (2015) SATRip

123 | 11

578.67 МБ

В этой теме нет новых непрочитанных сообщений. Раскрывая тайны. Мистика (Узники страшных домов) (2015) SATRip

99 | 19

579.51 МБ

В этой теме нет новых непрочитанных сообщений. Раскрывая тайны еды (Лимонад) (2016) SATRip

653 | 133

341.98 МБ

В этой теме нет новых непрочитанных сообщений. Раскрывая мистические тайны. Хиромантия (2016) SATRip

258 | 36

578.41 МБ

В этой теме нет новых непрочитанных сообщений. Раскрывая мистические тайны. Вуду (2016) SATRip

7 | 1

578.4 МБ




Вы не можете начинать темы
Вы не можете отвечать на сообщения
Вы не можете редактировать свои сообщения
Вы не можете удалять свои сообщения
Вы не можете добавлять вложения

Перейти:  
Для Мосгорсуда, Роскомнадзора и рекламодателей: mosgorsud-torrent[собачка]yandex.ru
 Вход
ppkBB3cker v.2 © 2008-2014 @ PPK
[ Time : 0.060s | 15 Queries | GZIP : Off ]

cron