img image001 image001 image001 image001 image001 image001 image001 image001 image001 image001 image001 image001 image001 image001 image001

Planets Sun Sun Sun
Статистика раздачи
Автор: Nickolas3434 | Размер: 715.55 МБ | Добавлен: 04 окт 2015
Раздают: 78    Качают: 7
Скачать торрент
Скачать торрент
Описание торрента

СообщениеДобавлено: 04 окт 2015 


Информация о фильме
Название: Армен Джигарханян - Там где мне хорошо
Год выхода: 2015
Жанр: Документальный
О фильме:
Почти полгода пришлось ждать, пока Армен Борисович даст согласие на интервью. Казалось бы - такой обаятельный, доброжелательный, с прекрасным чувством юмора, быстро переходит с тобой в разговоре на "ты" и называет своим другом – вот так собеседник!.
Страна: Россия
Продолжительность: ~00:50:00
Перевод: Не требуется
Файл
Кодек: XviD
Качество: SATRip
Видео: 704x448 25.00fps 1800kbps
Звук: 48000Hz stereo 192kbps

Общее
Полное имя : D:Armen.Dzhigarhanyan-Tam.Gde.Mne.Horosho.SATRip.avi
Формат : AVI
Формат/Информация : Audio Video Interleave
Размер файла : 716 Мбайт
Продолжительность : 49 м.
Общий поток : 2002 Кбит/сек
Программа кодирования : VirtualDubMod 1.5.10.3 | www.virtualdub-fr.org || (build 2550/release)
Библиотека кодирования : VirtualDubMod build 2550/release
Видео
Идентификатор : 0
Формат : MPEG-4 Visual
Профиль формата : Advanced Simple@L5
Параметр BVOP формата : 2
Параметр QPel формата : Нет
Параметр GMC формата : Без точки перехода
Параметр матрицы формата : Default (H.263)
Идентификатор кодека : XVID
Идентификатор кодека/Подсказка : XviD
Продолжительность : 49 м.
Битрейт : 1800 Кбит/сек
Ширина : 704 пикселя
Высота : 448 пикселей
Соотношение сторон : 16:10
Частота кадров : 25,000 кадров/сек
Цветовое пространство : YUV
Субдискретизация насыщенности : 4:2:0
Битовая глубина : 8 бит
Тип развёртки : Прогрессивная
Метод сжатия : С потерями
Бит/(Пиксели*Кадры) : 0.228
Размер потока : 643 Мбайт (90%)
Библиотека кодирования : XviD 1.2.1 (UTC 2008-12-04)
Аудио
Идентификатор : 1
Формат : AC-3
Формат/Информация : Audio Coding 3
Расширение режима : CM (complete main)
Параметр Endianness формата : Big
Идентификатор кодека : 2000
Продолжительность : 49 м.
Вид битрейта : Постоянный
Битрейт : 192 Кбит/сек
Каналы : 2 канала
Расположение каналов : Front: L R
Частота : 48,0 КГц
Метод сжатия : С потерями
Размер потока : 68,6 Мбайт (10%)
Выравнивание : Разделение по промежуткам
Продолжительность промежутка : 40 мс. (1,00 видеокадр)
Время предзагрузки промежутка : 500 мс.

Релиз от:



   Похожие торренты   Торрент   Размер 
В этой теме нет новых непрочитанных сообщений. Познер (эфир от 2010.06.07) Армен Борисович Джигарханян (2010) SATRip

0 | 48

550.59 МБ

В этой теме нет новых непрочитанных сообщений. По следам тайны (1-16 выпуски) (Армен Петросян) [2011-2015, документальный, SATRip]

16 | 2

8.87 ГБ

В этой теме нет новых непрочитанных сообщений. Сам себе Джигарханян (2015) WEB-DLRip от Files-х

158 | 9

550.32 МБ

В этой теме нет новых непрочитанных сообщений. Армен Григорян & 3-й Ангел - Китайский Танк (2006) FLAC

3 | 4

370.97 МБ

В этой теме нет новых непрочитанных сообщений. Теннис. WTA Brisbane-2015. Брисбен-2015. Финал. Роджер Федерер - Милош Раонич [11.01] (2015) SATRip 720p | 50 fps

19 | 5

3.3 ГБ

В этой теме нет новых непрочитанных сообщений. Сан-Ремо 2015 / Sanremo 2015 [65º Festival della Canzone Italiana] (2015) SATRip-AVC

173 | 22

16.43 ГБ

В этой теме нет новых непрочитанных сообщений. Футбол. Чемпионат России 2015-2016. 16 тур. Зенит - Урал [21.11] (2015) SATRip-AVC

9 | 0

1.63 ГБ




Вы не можете начинать темы
Вы не можете отвечать на сообщения
Вы не можете редактировать свои сообщения
Вы не можете удалять свои сообщения
Вы не можете добавлять вложения

Перейти:  
Для Мосгорсуда, Роскомнадзора и рекламодателей: mosgorsud-torrent[собачка]yandex.ru
 Вход
ppkBB3cker v.2 © 2008-2014 @ PPK
[ Time : 0.054s | 15 Queries | GZIP : Off ]

cron