img image001 image001 image001 image001 image001 image001 image001 image001 image001 image001 image001 image001 image001 image001 image001

Planets Sun Sun Sun
Статистика раздачи
Автор: Nickolas3434 | Размер: 505.53 МБ | Добавлен: 04 окт 2015
Раздают: 3    Качают: 0
Скачать торрент
Скачать торрент
Описание торрента

СообщениеДобавлено: 04 окт 2015 


Информация о фильме
Название: Это моя мама
Год выхода: 2015
В ролях: Татьяна Лютаева и Агния Дитковските
О фильме:
Каждую неделю наша программа делает счастливой одну конкретную женщину, а дети, замерев от восторга, восклицают: "Неужели это моя мама?".
В студию к Татьяне Лютаевой и Агнии Дитковските приходят мама и дочка, чтобы попробовать не только изменить первую, но и вернуть ей интерес к жизни, а иногда просто полностью поменять привычный ход событий.
Дочь не может понять, почему ее мама перестала следить за собой, или начала одеваться как бабушка, или не встречается больше с подругами, не ходит в театры, а ее жизнь сосредоточилась около телевизора, поликлиники, грядки...
В глубине души все женщины надеются, что однажды их маленькие дети начнут о них заботиться. Станут решительными и милосердными, щедрыми и внимательными. Поймут, что мама хочет услышать хотя бы один раз фразу, которую сама говорила детям: "Не волнуйся, я рядом. Все будет хорошо".
В финале каждой программы дочь сможет с гордостью сказать: "Это моя мама!". А может не узнать и спросить у ведущих: "Это моя мама?".
Страна: Россия
Продолжительность: ~00:34:00
Перевод: Не требуется
Файл
Кодек: XviD
Качество: SATRip
Видео: 720x400 25.00fps 1800kbps
Звук: 48000Hz stereo 192kbps


Общее
Полное имя : D:Eto.Moya.Mama.03.10.2015.SATRip.avi
Формат : AVI
Формат/Информация : Audio Video Interleave
Размер файла : 492 Мбайт
Продолжительность : 34 м.
Общий поток : 2002 Кбит/сек
Программа кодирования : VirtualDubMod 1.5.10.3 | www.virtualdub-fr.org || (build 2550/release)
Библиотека кодирования : VirtualDubMod build 2550/release
Видео
Идентификатор : 0
Формат : MPEG-4 Visual
Профиль формата : Advanced Simple@L5
Параметр BVOP формата : 2
Параметр QPel формата : Нет
Параметр GMC формата : Без точки перехода
Параметр матрицы формата : Default (H.263)
Идентификатор кодека : XVID
Идентификатор кодека/Подсказка : XviD
Продолжительность : 34 м.
Битрейт : 1800 Кбит/сек
Ширина : 720 пикселей
Высота : 400 пикселей
Соотношение сторон : 16:9
Частота кадров : 25,000 кадров/сек
Цветовое пространство : YUV
Субдискретизация насыщенности : 4:2:0
Битовая глубина : 8 бит
Тип развёртки : Прогрессивная
Метод сжатия : С потерями
Бит/(Пиксели*Кадры) : 0.250
Размер потока : 443 Мбайт (90%)
Библиотека кодирования : XviD 73
Аудио
Идентификатор : 1
Формат : AC-3
Формат/Информация : Audio Coding 3
Расширение режима : CM (complete main)
Параметр Endianness формата : Big
Идентификатор кодека : 2000
Продолжительность : 34 м.
Вид битрейта : Постоянный
Битрейт : 192 Кбит/сек
Каналы : 2 канала
Расположение каналов : Front: L R
Частота : 48,0 КГц
Метод сжатия : С потерями
Размер потока : 47,2 Мбайт (10%)
Выравнивание : Разделение по промежуткам
Продолжительность промежутка : 40 мс. (1,00 видеокадр)
Время предзагрузки промежутка : 500 мс.

Релиз от:



   Похожие торренты   Торрент   Размер 
В этой теме нет новых непрочитанных сообщений. Это моя мама [01] (2015) SATRip

7 | 0

492.5 МБ

В этой теме нет новых непрочитанных сообщений. Моя мама против [01 из 04] (2015) SATRip

597 | 79

2.42 ГБ

В этой теме нет новых непрочитанных сообщений. Мама-невидимка (Невидимая мама) / Invisible Mom (1996) DVDRip от PlanetaUA

285 | 9

1.46 ГБ

В этой теме нет новых непрочитанных сообщений. Варчун и Карандаш - Мама не пей, Мама это ЯД! (2012) FLAC

5 | 1

298.98 МБ

В этой теме нет новых непрочитанных сообщений. Варчун и Карандаш - Мама не пей, Мама это ЯД! (2012) MP3

7 | 5

100.91 МБ

В этой теме нет новых непрочитанных сообщений. Мама напрокат (2010) SATRip

42 | 7

739.14 МБ

В этой теме нет новых непрочитанных сообщений. Мама в законе [01-04 из 04] (2014) SATRip

1349 | 561

2.01 ГБ




Вы не можете начинать темы
Вы не можете отвечать на сообщения
Вы не можете редактировать свои сообщения
Вы не можете удалять свои сообщения
Вы не можете добавлять вложения

Перейти:  
Для Мосгорсуда, Роскомнадзора и рекламодателей: mosgorsud-torrent[собачка]yandex.ru
 Вход
ppkBB3cker v.2 © 2008-2014 @ PPK
[ Time : 0.041s | 15 Queries | GZIP : Off ]

Торрент трекер RUTOR.IN, Не можете зайти на rutor.org? Какой новый адрес рутор? Какое зеркало рутор? Не работает rutor.org и зеркала? Тогда наш торрент специально для вас. Rutor.in неофициальное зеркало rutor. В случае если у Вас заблокирован rutor или вдруг Вы не можете на него зайти, то Вы без труда сможете скачать бесплатно и без рекламы последние новинки кино, игр, сериалов и прочего у нас, на Rutor.in. Не нужно использовать прокси, чтобы зайти на рутор, достаточно воспользоваться нашим ресурсом. Все новые фильмы, игры, сериалы, книги и музыка за 2013 и 2014 годы через торрент бесплатно. Скачивайте фильмы в хорошем качестве, игры для пк, xbox, playstation без регистрации. У нас вы найдете новые Зарубежные сериалы и Русские сериалы 2013, 2014, 2015 годов. Оставайтесь с нами, качайте любимые фильмы, игры, сериалы, книги и музыку.
cron