img image001 image001 image001 image001 image001 image001 image001 image001 image001 image001 image001 image001 image001 image001 image001

Planets Sun Sun Sun
Статистика раздачи
Автор: Nickolas3434 | Размер: 615.24 МБ | Добавлен: 04 окт 2015
Раздают: 62    Качают: 3
Скачать торрент
Скачать торрент
Описание торрента

СообщениеДобавлено: 04 окт 2015 


Информация о фильме
Название: Я худею
Год выхода: 2015
Жанр: Тв-Шоу
О фильме:
В очередном выпуске проекта – мать и дочь худеют на диете самураев и выясняют, что на самом деле едят японцы, чтобы жить долго и не толстеть.
Горькая правда о роллах и суши: неужели эта еда приводит к ожирению?
Лосось – от депрессии, апельсиновое масло – от мышечной боли, и все о том, как работают обертывания. Солистка группы «ВИА Гра» поделится с героинями проекта секретом скраба из детского питания.
А также – гимнастика голливудских красавиц. Почему Мадонна и Памела Андерсон выбирают тайбо?
Продолжительность: ~ 00:50:00
Перевод: Не требуется
Файл
Кодек: DivX
Качество: SATRip
Видео: DivX 5 720x448 25.00fps 1500kbps
Звук: MPEG Audio Layer 3 48000Hz stereo 128kbps


Общее
Полное имя : D:Ja.hudeju.(2015.10.03).SATRip.avi
Формат : AVI
Формат/Информация : Audio Video Interleave
Размер файла : 623 Мбайт
Продолжительность : 44 м.
Общий поток : 1938 Кбит/сек
Программа кодирования : VirtualDubModRus 1.5.10.2 (build 2542/release)
Библиотека кодирования : VirtualDubMod build 2542/release
Видео
Идентификатор : 0
Формат : MPEG-4 Visual
Профиль формата : Advanced Simple@L5
Параметр BVOP формата : 2
Параметр QPel формата : Нет
Параметр GMC формата : Без точки перехода
Параметр матрицы формата : Default (H.263)
Идентификатор кодека : XVID
Идентификатор кодека/Подсказка : XviD
Продолжительность : 44 м.
Битрейт : 1800 Кбит/сек
Ширина : 720 пикселей
Высота : 448 пикселей
Соотношение сторон : 16:10
Частота кадров : 25,000 кадров/сек
Цветовое пространство : YUV
Субдискретизация насыщенности : 4:2:0
Битовая глубина : 8 бит
Тип развёртки : Прогрессивная
Метод сжатия : С потерями
Бит/(Пиксели*Кадры) : 0.223
Размер потока : 579 Мбайт (93%)
Библиотека кодирования : XviD 1.2.1 (UTC 2008-12-04)
Аудио
Идентификатор : 1
Формат : MPEG Audio
Версия формата : Version 1
Профиль формата : Layer 3
Идентификатор кодека : 55
Идентификатор кодека/Подсказка : MP3
Продолжительность : 44 м.
Вид битрейта : Постоянный
Битрейт : 128 Кбит/сек
Каналы : 2 канала
Частота : 48,0 КГц
Метод сжатия : С потерями
Размер потока : 41,1 Мбайт (7%)
Выравнивание : Соединение по промежуткам
Продолжительность промежутка : 40 мс. (1,00 видеокадр)
Время предзагрузки промежутка : 504 мс.
Библиотека кодирования : LAME3.99r
Настройки программы : -m s -V 4 -q 2 -lowpass 17 -b 128

Релиз от:



   Похожие торренты   Торрент   Размер 
В этой теме нет новых непрочитанных сообщений. Я худею [12.09] (2015) SATRip

119 | 16

618.71 МБ

В этой теме нет новых непрочитанных сообщений. Я худею [17.10] (2015) SATRip

52 | 7

642.43 МБ

В этой теме нет новых непрочитанных сообщений. Я худею [19.09] (2015) SATRip

52 | 8

618.97 МБ

В этой теме нет новых непрочитанных сообщений. Я худею [26.09] (2015) SATRip

69 | 4

622.87 МБ

В этой теме нет новых непрочитанных сообщений. Я худею [10.10] (2015) SATRip

71 | 4

655.85 МБ

В этой теме нет новых непрочитанных сообщений. Теннис. WTA Brisbane-2015. Брисбен-2015. Финал. Роджер Федерер - Милош Раонич [11.01] (2015) SATRip 720p | 50 fps

19 | 5

3.3 ГБ

В этой теме нет новых непрочитанных сообщений. Сан-Ремо 2015 / Sanremo 2015 [65º Festival della Canzone Italiana] (2015) SATRip-AVC

173 | 22

16.43 ГБ




Вы не можете начинать темы
Вы не можете отвечать на сообщения
Вы не можете редактировать свои сообщения
Вы не можете удалять свои сообщения
Вы не можете добавлять вложения

Перейти:  
Для Мосгорсуда, Роскомнадзора и рекламодателей: mosgorsud-torrent[собачка]yandex.ru
 Вход
ppkBB3cker v.2 © 2008-2014 @ PPK
[ Time : 0.309s | 14 Queries | GZIP : Off ]

Торрент трекер RUTOR.IN, Не можете зайти на rutor.org? Какой новый адрес рутор? Какое зеркало рутор? Не работает rutor.org и зеркала? Тогда наш торрент специально для вас. Rutor.in неофициальное зеркало rutor. В случае если у Вас заблокирован rutor или вдруг Вы не можете на него зайти, то Вы без труда сможете скачать бесплатно и без рекламы последние новинки кино, игр, сериалов и прочего у нас, на Rutor.in. Не нужно использовать прокси, чтобы зайти на рутор, достаточно воспользоваться нашим ресурсом. Все новые фильмы, игры, сериалы, книги и музыка за 2013 и 2014 годы через торрент бесплатно. Скачивайте фильмы в хорошем качестве, игры для пк, xbox, playstation без регистрации. У нас вы найдете новые Зарубежные сериалы и Русские сериалы 2013, 2014, 2015 годов. Оставайтесь с нами, качайте любимые фильмы, игры, сериалы, книги и музыку.